<?xml version="1.0" encoding="UTF-8" standalone="no"?>
<!-- Creator: CorelDRAW -->

<svg
   xml:space="preserve"
   width="2.642mm"
   height="2.642mm"
   style="clip-rule:evenodd;fill-rule:evenodd;image-rendering:optimizeQuality;shape-rendering:geometricPrecision;text-rendering:geometricPrecision"
   viewBox="0 0 2.6419999 2.6419999"
   version="1.1"
   id="svg1331"
   sodipodi:docname="крестик для закрытия.svg"
   inkscape:version="1.1.2 (b8e25be8, 2022-02-05)"
   xmlns:inkscape="http://www.inkscape.org/namespaces/inkscape"
   xmlns:sodipodi="http://sodipodi.sourceforge.net/DTD/sodipodi-0.dtd"
   xmlns="http://www.w3.org/2000/svg"
   xmlns:svg="http://www.w3.org/2000/svg"><sodipodi:namedview
   id="namedview1333"
   pagecolor="#ffffff"
   bordercolor="#666666"
   borderopacity="1.0"
   inkscape:pageshadow="2"
   inkscape:pageopacity="0.0"
   inkscape:pagecheckerboard="0"
   inkscape:document-units="mm"
   showgrid="false"
   fit-margin-top="0"
   fit-margin-left="0"
   fit-margin-right="0"
   fit-margin-bottom="0"
   inkscape:zoom="23.257297"
   inkscape:cx="1.6768931"
   inkscape:cy="5.0951752"
   inkscape:window-width="1312"
   inkscape:window-height="969"
   inkscape:window-x="40"
   inkscape:window-y="25"
   inkscape:window-maximized="0"
   inkscape:current-layer="Слой_x0020_1" />
 <defs
   id="defs1189">
  <font
   id="FontID1"
   font-variant="normal"
   style="fill-rule:nonzero"
   font-style="normal"
   font-weight="400"
   horiz-origin-x="0"
   horiz-origin-y="0"
   horiz-adv-x="1024"
   vert-origin-x="512"
   vert-origin-y="768"
   vert-adv-y="1024">
	<font-face
   font-family="Bitter"
   id="font-face824">
	</font-face>
   <missing-glyph
   id="missing-glyph828"><path
     d="M0 0z"
     id="path826" /></missing-glyph>
   <glyph
   unicode="ы"
   horiz-adv-x="815"
   id="glyph832"><path
     d="M124.986 77.0083l-84.9918 -22.0024 0 -55.0059 227.014 0c48.474,0 89.652,6.14997 123.496,18.4881 33.9967,12.3381 59.8189,31.17 77.6577,56.3429 17.6859,25.1728 26.6626,56.8395 26.8536,95.1526 -0.190993,30.0241 -5.3478,55.8463 -15.3558,77.6959 -10.1608,21.8114 -24.3325,39.8029 -42.4768,53.8218 -18.1825,14.1717 -39.6883,24.4853 -64.0208,31.3228 -24.4853,6.83754 -51.3389,10.1608 -80.1788,10.1608l-67.9934 0 0 106.001 94.9998 21.0092 0 60.0099 -279.995 -5.00401 0 -55.0059 84.9918 -19.9778 0 -373.009zm390.007 -77.0083l260.018 0 0 55.0059 -75.022 24.9819 0 370.029 75.022 19.9778 0 60.0099 -260.018 -5.00401 0 -55.0059 84.9918 -19.9778 0 -370.029 -84.9918 -24.9819 0 -55.0059zm-290.003 74.9838l0 193.017 48.0156 0c27.312,0.152794 49.5053,-3.17048 66.8093,-10.1608 17.1894,-6.99034 30.0241,-18.3353 38.0076,-34.3405 8.17449,-15.8142 12.3381,-37.0144 12.1853,-63.486 -0.190993,-27.694 -10.5046,-48.665 -30.8262,-63.1804 -20.3598,-14.5155 -49.5053,-21.6586 -87.1691,-21.8496l-47.0224 0z"
     id="path830" /></glyph>
   <glyph
   unicode="р"
   horiz-adv-x="614"
   id="glyph836"><path
     d="M195.004 530.005l-170.022 -5.00401 0 -55.0059 85.03 -19.9778 0 -605.027 -80.026 -19.9778 0 -55.0059 284.999 0 0 55.0059 -104.97 19.9778 0 159.021c13.4841,-4.01085 27.6558,-7.33412 42.8206,-10.008 15.012,-2.5211 30.6734,-3.81986 47.1752,-4.01085 46.1439,0.190993 86.3287,7.33412 120.173,21.353 33.9967,14.1717 61.9963,34.1495 84.1514,59.9717 22.1552,25.6694 38.6569,56.3429 49.5053,91.6765 10.8102,35.3337 16.158,74.3344 16.158,117.002 0,38.8479 -4.31644,74.1816 -13.1785,106.001 -8.82387,31.8194 -22.1552,59.1696 -39.9939,82.1651 -17.6477,22.9955 -40.1467,40.6815 -67.0003,53.0196 -27.0064,12.4909 -58.482,18.6409 -94.8088,18.8319 -17.3421,-0.190993 -33.5001,-2.17732 -48.665,-6.34096 -15.203,-4.16364 -29.1837,-9.51144 -42.0184,-16.158 -12.8347,-6.68475 -24.3325,-13.6751 -34.6843,-21.353 -10.1608,-7.67791 -19.1375,-15.012 -26.6626,-22.1552l-7.9835 55.9991zm15.012 -139.998c0,0.152794 1.48974,2.6739 4.31644,7.33412 3.01769,4.66022 7.48692,10.5046 13.6751,17.3421 6.34096,6.79934 14.3245,13.8279 24.1415,20.6654 9.85523,6.99034 21.5058,12.6437 35.3337,17.3039 13.6751,4.69842 29.5275,7.18133 47.519,7.33412 22.4989,-0.152794 41.8274,-4.81302 58.3292,-14.1717 16.349,-9.32045 29.8331,-22.4989 40.4905,-39.4973 10.5046,-16.9984 18.3353,-37.1672 23.5303,-60.1627 5.15681,-23.1483 7.63971,-48.474 7.63971,-76.1679 0.190993,-27.6558 -2.13912,-53.478 -7.14313,-77.6577 -4.85122,-23.9887 -13.0257,-45.3417 -24.3325,-63.677 -11.345,-18.1443 -26.7008,-32.4688 -46.1821,-42.8206 -19.3285,-10.3136 -43.5082,-15.6614 -72.3481,-15.8142 -24.8291,0.152794 -45.1507,1.98632 -60.4683,5.15681 -15.5086,3.17048 -26.8536,6.49375 -34.0349,9.66423 -6.99034,3.17048 -10.6574,4.81302 -10.4664,5.15681l0 300.011z"
     id="path834" /></glyph>
   <glyph
   unicode="%"
   horiz-adv-x="815"
   id="glyph840"><path
     d="M45.0038 529.989c0.333361,-39.8089 7.00058,-72.3116 20.1683,-97.3137 13.1678,-25.1688 31.5026,-43.5036 54.6712,-55.1713 23.1686,-11.8343 49.9764,-17.6681 80.1456,-17.5015 32.0027,0 60.3384,6.66722 85.0071,20.0017 24.6687,13.3344 44.1703,33.3361 58.3382,60.005 14.1678,26.6689 21.3351,59.9772 21.6685,99.9806 -0.166681,38.3365 -7.00058,70.0058 -20.1683,95.1746 -13.1678,25.1688 -31.5026,44.0037 -54.6712,56.338 -23.1686,12.3344 -49.8375,18.5015 -80.1733,18.5015 -32.0027,0 -60.3106,-7.16726 -84.9793,-21.1684 -24.6687,-13.8345 -44.1703,-34.3362 -58.3382,-61.0051 -14.1678,-26.8356 -21.3351,-59.3383 -21.6685,-97.8415zm604.995 170.014l-90.0075 0 -404.978 -700.003 89.9797 0 405.006 700.003zm-529.989 -165.014c0,21.8352 2.83357,41.0034 8.66739,57.5048 5.83382,16.3347 15.1679,29.1691 27.669,38.5032 12.4733,9.16743 28.6413,13.8345 48.6429,14.0012 20.0017,-0.166681 36.1697,-4.83374 48.6707,-14.0012 12.6677,-9.33411 21.8352,-22.1685 27.669,-38.5032 5.83382,-16.5014 8.66739,-35.6696 8.66739,-57.5048 0.166681,-35.1418 -6.50054,-62.3107 -20.0017,-81.1457 -13.5011,-19.0016 -35.1696,-28.6691 -65.0054,-28.8357 -29.8358,0.166681 -51.4765,9.83415 -64.9776,28.8357 -13.5011,18.8349 -20.1683,46.0038 -20.0017,81.1457l0 0zm319.999 -374.976c0.333361,-39.8367 7.00058,-72.3394 20.1683,-97.3414 13.1678,-25.1688 31.5026,-43.5036 54.6434,-55.3379 23.1686,-11.6676 50.0042,-17.5015 80.1733,-17.3348 32.0027,0 60.3384,6.66722 85.0071,20.0017 24.6687,13.3344 44.1703,33.3361 58.3382,60.005 14.1678,26.6689 21.3351,60.005 21.6685,99.9806 -0.166681,38.3365 -7.00058,70.0058 -20.1683,95.1746 -13.1678,25.1688 -31.5026,44.0037 -54.6712,56.338 -23.1686,12.3344 -49.8375,18.5015 -80.1733,18.5015 -32.0027,-0.166681 -60.3384,-7.16726 -85.0071,-21.1684 -24.6409,-14.0012 -44.1426,-34.3362 -58.3104,-61.0051 -14.1678,-26.8356 -21.3351,-59.3383 -21.6685,-97.8137zm74.9785 5.00042c0,21.8074 2.83357,40.9756 8.66739,57.477 5.83382,16.3347 15.1679,29.1691 27.669,38.5032 12.501,9.16743 28.6691,13.8345 48.6707,14.0012 20.0017,-0.166681 36.1697,-4.83374 48.6707,-14.0012 12.6677,-9.33411 21.8352,-22.1685 27.669,-38.5032 5.83382,-16.5014 8.83407,-35.6696 8.66739,-57.477 0.166681,-35.1696 -6.50054,-62.3385 -20.0017,-81.3401 -13.5011,-18.8349 -35.1696,-28.5024 -65.0054,-28.6691 -29.8358,0.166681 -51.5043,9.83415 -65.0054,28.6691 -13.5011,19.0016 -20.1683,46.1705 -20.0017,81.3401z"
     id="path838" /></glyph>
   <glyph
   unicode=" "
   horiz-adv-x="229"
   id="glyph842" />
   <glyph
   unicode="?"
   horiz-adv-x="480"
   id="glyph846"><path
     d="M233.011 234.004c0,0.152794 -0.190993,2.97949 -0.496581,8.48008 -0.343787,5.50059 -0.687574,13.0257 -1.03136,22.3462 -0.305588,9.32045 -0.496581,19.6723 -0.496581,31.17 0.190993,12.6819 3.66706,24.8291 10.199,36.5178 6.64655,11.6506 15.4704,23.1483 26.4716,34.4933 11.0012,11.3068 22.9955,22.9955 36.174,34.8371 13.1785,11.8034 26.166,24.3325 39.3445,37.4728 13.1403,13.1785 25.1728,27.3502 36.174,42.3622 11.0012,15.1648 19.8251,31.6666 26.4716,49.4671 6.49375,17.8387 10.008,37.511 10.1608,58.864 -0.152794,29.8331 -5.99717,54.8149 -17.3039,74.831 -11.1922,19.9778 -26.5098,35.983 -45.8383,47.6718 -19.3285,11.8034 -41.178,20.1306 -65.5105,25.1346 -24.3325,5.00401 -49.8109,7.52512 -76.3207,7.33412 -15.1648,-0.152794 -30.1769,-1.33695 -44.9979,-3.47607 -14.8592,-2.33011 -28.3433,-5.00401 -40.5287,-8.0217 -12.1471,-2.97949 -21.9642,-5.65339 -29.1455,-7.8307 -7.33412,-2.33011 -11.154,-3.47607 -11.345,-3.66706l16.0052 -74.9838c0.152794,0.152794 3.32327,0.840368 9.32045,1.98632 6.18817,1.33695 14.3627,2.82669 24.5235,4.50743 10.008,1.68074 21.3148,3.17048 33.6529,4.50743 12.3381,1.33695 24.8291,1.98632 37.511,1.98632 34.9899,0.190993 61.3469,-6.34096 78.8418,-19.3285 17.4949,-12.9875 26.166,-33.1563 26.166,-60.6593 -0.343787,-18.3353 -4.66022,-35.5247 -13.1785,-51.3389 -8.32729,-15.6614 -19.3285,-30.4824 -32.6598,-44.5013 -13.5223,-13.8279 -27.6558,-27.3502 -42.6678,-40.1849 -15.012,-12.7965 -29.1837,-25.4784 -42.6678,-38.1604 -13.3313,-12.4909 -24.1797,-25.3256 -32.6598,-38.5041 -8.51828,-13.1403 -12.8347,-26.8154 -13.1785,-41.3308 0,-7.8307 0.496581,-16.9984 1.48974,-27.9995 0.840368,-10.8102 1.83353,-21.5058 3.01769,-32.1632 1.14596,-10.6574 2.17732,-19.6723 3.17048,-26.6626 0.840368,-7.14313 1.33695,-10.8102 1.33695,-11.154l89.9958 5.99717zm-102.028 -173.994c0.190993,-22.6899 6.03537,-39.8411 17.5331,-51.8354 11.4978,-11.9943 27.312,-17.9915 47.4808,-18.1825 11.8416,0 22.6517,2.82669 32.3542,8.17449 9.81703,5.3478 17.6477,13.3313 23.6449,23.6831 5.84438,10.4664 8.82387,23.1483 9.01486,38.1604 -0.190993,22.6517 -5.99717,39.8411 -17.4949,51.8354 -11.4978,11.9943 -27.3502,17.9915 -47.519,18.1443 -11.8416,0 -22.6517,-2.82669 -32.316,-8.17449 -9.85523,-5.3096 -17.6859,-13.3313 -23.5303,-23.6449 -5.99717,-10.5046 -8.97666,-23.1865 -9.16765,-38.1604l0 0z"
     id="path844" /></glyph>
   <glyph
   unicode="0"
   horiz-adv-x="644"
   id="glyph850"><path
     d="M335 710.004c-47.3373,-0.166681 -87.8407,-8.66739 -121.51,-25.3354 -33.6695,-16.8347 -61.144,-41.0034 -82.1457,-72.8394 -21.1684,-31.6693 -36.6697,-70.0058 -46.6706,-114.815 -9.83415,-45.0038 -14.8346,-95.6746 -14.6679,-152.013 -0.166681,-75.1729 8.50071,-139.178 26.1688,-191.988 17.5015,-52.8377 45.1704,-93.1744 82.6458,-121.01 37.6698,-27.8357 86.3405,-41.8368 146.179,-42.0035 59.8383,0.166681 109.009,14.8346 147.512,43.6703 38.3087,29.0024 66.6444,71.0059 85.146,126.011 18.3349,54.9768 27.5023,121.816 27.3356,200.322 0.166681,56.338 -4.00033,106.176 -12.3344,149.651 -8.33403,43.3369 -22.1685,80.0067 -41.3368,109.676 -19.3349,29.8358 -44.976,52.3377 -77.1453,67.6723 -32.1693,15.3346 -71.8393,23.0019 -119.177,23.0019zm-5.00042 -85.0071c36.503,0 65.3388,-10.0008 86.5072,-30.0025 21.1684,-20.0017 36.3364,-50.0042 45.3371,-90.0075 9.00075,-39.9756 13.5011,-89.9797 13.1678,-149.985 0.166681,-61.6718 -4.50038,-113.343 -14.1678,-154.846 -9.66747,-41.4757 -25.1688,-72.6449 -46.5039,-93.6467 -21.3351,-21.0018 -49.5041,-31.5026 -84.3404,-31.5026 -34.8362,0 -63.5053,10.5009 -85.5071,31.3359 -22.1685,20.8351 -38.5032,51.5043 -49.0041,92.3132 -10.3342,40.8367 -15.668,91.3409 -15.5013,151.346 -0.166681,61.6718 4.66706,112.843 14.5012,153.485 9.83415,40.8367 25.6688,71.1726 47.6706,91.3409 22.1685,20.1683 51.3376,30.1692 87.8407,30.1692z"
     id="path848" /></glyph>
   <glyph
   unicode="5"
   horiz-adv-x="529"
   id="glyph854"><path
     d="M166.986 614.996l282.024 0 3.00025 85.0071 -379.004 0 -13.0011 -355.002 105.009 0c41.809,0 78.1454,-5.00042 108.648,-15.0013 30.6692,-10.0008 54.3379,-25.0021 71.0059,-45.0038 16.6681,-20.0017 25.1688,-45.0038 25.3354,-75.0063 -0.166681,-22.5019 -4.16701,-42.1702 -12.1677,-58.9771 -7.83399,-17.0014 -18.6682,-31.0026 -32.1693,-42.3369 -13.6678,-11.1676 -29.0024,-19.6683 -46.3372,-25.1688 -17.3348,-5.66714 -35.3363,-8.50071 -54.3379,-8.50071 -23.8353,0.166681 -46.3372,2.50021 -67.4778,7.00058 -21.0018,4.50038 -39.5033,9.66747 -55.6713,15.5013 -16.0013,5.83382 -28.6691,11.0009 -37.8365,15.5013 -9.16743,4.50038 -13.8345,6.8339 -14.0012,7.00058l-30.0025 -80.0067c0.166681,-0.333361 5.00042,-2.83357 14.5012,-7.83399 9.66747,-5.00042 23.502,-10.6676 41.8368,-17.1681 18.1682,-6.50054 40.17,-12.1677 66.0055,-17.1681 25.8077,-5.00042 55.1435,-7.50063 87.6462,-7.83399 24.1687,0 48.1707,3.00025 72.1727,9.00075 23.8353,6.0005 46.3372,15.0013 67.6723,27.0023 21.3351,12.001 40.17,27.0023 56.6714,45.0038 16.5014,18.0015 29.5025,39.0033 39.0033,63.0053 9.50079,24.002 14.3345,50.9765 14.5012,80.979 -0.166681,42.0035 -11.8343,78.6732 -34.6696,110.009 -23.0019,31.3359 -56.0047,55.838 -99.1749,73.3394 -43.3369,17.5015 -95.3413,26.3355 -156.18,26.6689l-31.9749 0 8.97297 189.988z"
     id="path852" /></glyph>
   <glyph
   unicode="Д"
   horiz-adv-x="736"
   id="glyph858"><path
     d="M696.002 -174.987l-5.00042 236.992 -110.009 18.0015 0 539.989 85.0071 20.0017 0 60.005 -575.992 0 0 -60.005 109.981 -20.0017c-1.16676,-32.0027 -2.66689,-61.6718 -4.16701,-88.8407 -1.66681,-27.3356 -3.50029,-53.6434 -5.50046,-79.1455 -2.16685,-25.5021 -4.66706,-51.671 -7.50063,-78.3399 -2.83357,-26.8356 -6.16718,-55.6713 -9.83415,-86.6739 -3.66697,-31.836 -7.63953,-59.1716 -11.8065,-82.0068 -4.16701,-22.6686 -9.50079,-41.809 -15.8347,-57.477 -6.33386,-15.5013 -14.6679,-28.5024 -24.6687,-38.8366 -10.0008,-10.1675 -22.8352,-18.8349 -38.1698,-25.5021 -15.3346,-6.8339 -34.1695,-13.0011 -56.5047,-18.1682l-6.0005 -239.992 60.005 0 50.0042 174.987 455.982 0 50.0042 -174.987 60.005 0zm-219.991 794.983l0 -539.989 -288.024 0c12.8344,14.8346 23.502,32.0027 31.836,51.3376 8.16735,19.3349 15.0013,41.6424 20.1683,66.9778 5.1671,25.1688 9.50079,54.1712 13.0011,86.6739 4.00033,36.8364 7.83399,74.0062 11.1676,111.843 3.50029,37.6698 6.66722,75.3396 9.33411,112.815 2.66689,37.5031 4.83374,74.3395 6.50054,110.343l196.016 0z"
     id="path856" /></glyph>
   <glyph
   unicode="К"
   horiz-adv-x="690"
   id="glyph862"><path
     d="M45.0038 0l284.996 0 0 60.005 -95.0079 20.0017 0 239.992 98.0082 0 171.987 -239.992 -84.9793 -20.0017 0 -60.005 284.996 0 0 60.005 -85.0071 20.0017 -205.989 286.996 151.985 252.993 99.0083 20.0017 0 60.005 -165.014 -5.00042 -172.987 -294.997 -92.0077 0 0 219.991 95.0079 20.0017 0 60.005 -284.996 -5.00042 0 -55.0046 85.0071 -20.0017 0 -539.989 -85.0071 -20.0017 0 -60.005z"
     id="path860" /></glyph>
   <glyph
   unicode="Е"
   horiz-adv-x="614"
   id="glyph866"><path
     d="M239.992 405.006l0 214.99 215.018 0 25.0021 -90.0075 64.9776 0 0 170.014 -304.998 0 -189.988 -5.00042 0 -55.0046 85.0071 -20.0017 0 -539.989 -85.0071 -20.0017 0 -60.005 504.987 0 0 179.987 -64.9776 0 -20.0017 -99.9806 -230.019 0 0 244.993 230.019 0 0 80.0067 -230.019 0z"
     id="path864" /></glyph>
   <glyph
   unicode="И"
   horiz-adv-x="798"
   id="glyph870"><path
     d="M673.001 619.996l85.0071 20.0017 0 60.005 -284.996 -5.00042 0 -55.0046 94.9801 -20.0017 0 -35.0029 -338 -365.003 0 400.006 95.0079 20.0017 0 60.005 -284.996 -5.00042 0 -55.0046 85.0071 -20.0017 0 -539.989 -85.0071 -20.0017 0 -60.005 284.996 0 0 60.005 -95.0079 20.0017 0 35.0029 338 362.002 0 -397.005 -94.9801 -20.0017 0 -60.005 284.996 0 0 60.005 -85.0071 20.0017 0 539.989z"
     id="path868" /></glyph>
   <glyph
   unicode="О"
   horiz-adv-x="755"
   id="glyph874"><path
     d="M385.004 710.004c-50.1708,-0.166681 -95.1746,-8.83407 -135.178,-26.0022 -40.0033,-17.3348 -74.0062,-42.0035 -102.314,-74.0062 -28.169,-32.0027 -49.8375,-70.5059 -64.8387,-115.148 -15.0013,-44.6704 -22.5019,-94.6746 -22.6686,-149.846 0.166681,-76.8397 12.001,-141.512 35.6696,-194.322 23.8353,-52.6711 58.3382,-92.5077 103.648,-119.677 45.3371,-27.1689 100.508,-40.8367 165.68,-41.0034 49.0041,0.166681 93.5078,9.16743 133.844,26.8356 40.3089,17.8348 74.9785,43.0036 104.314,75.673 29.1691,32.6694 51.8377,71.6726 67.6723,116.815 16.0013,45.3371 24.002,95.508 24.1687,150.679 0,53.8378 -7.16726,102.342 -21.0018,145.318 -14.0012,43.1703 -34.1695,79.84 -60.8384,110.343 -26.6689,30.5025 -59.1716,53.6711 -97.5081,69.8392 -38.1421,16.168 -81.8124,24.3354 -130.65,24.502zm-5.00042 -85.0071c65.1721,0 114.843,-22.5019 148.818,-67.5056 33.8362,-45.0038 51.0043,-112.482 51.1709,-202.489 -0.166681,-63.3386 -8.66739,-115.676 -25.5021,-157.013 -16.8347,-41.4757 -41.0034,-72.3116 -72.3116,-92.6466 -31.1693,-20.335 -68.6724,-30.3359 -112.176,-30.3359 -65.0054,0.166681 -113.676,23.502 -146.346,70.0058 -32.5027,46.4761 -48.6707,114.815 -48.6707,204.989 0.166681,63.1719 8.16735,115.176 24.3354,155.819 16.0013,40.5034 39.1699,70.6726 69.6725,90.1742 30.5025,19.5016 67.5056,29.1691 111.009,29.0024z"
     id="path872" /></glyph>
   <glyph
   unicode="У"
   horiz-adv-x="674"
   id="glyph878"><path
     d="M670 700.003l-264.994 -5.00042 0 -55.0046 90.0075 -20.0017 -148.012 -363.002 -168.014 363.002 85.0071 20.0017 0 60.005 -268.995 -5.00042 0 -55.0046 75.0063 -20.0017 228.991 -476.984c-11.8343,-22.5019 -25.6688,-39.5033 -41.5035,-50.8376 -15.8347,-11.501 -34.6696,-17.1681 -56.5047,-17.1681 -15.1679,0.166681 -30.3359,1.83349 -45.476,5.00042 -15.1679,3.16693 -29.3358,6.8339 -42.5035,11.0009l-20.0017 -75.0063c9.00075,-3.83365 19.5016,-7.66731 31.5026,-11.6676 12.001,-4.00033 25.1688,-7.33394 39.67,-10.0008 14.4734,-2.83357 30.1414,-4.16701 46.8095,-4.33369 23.502,-0.166681 47.1706,7.33394 71.3393,22.3352 24.1687,15.1679 47.8373,38.8366 71.3393,71.3393 23.502,32.336 45.8372,74.5062 67.3389,126.316l168.986 410.006 80.0067 20.0017 0 60.005z"
     id="path876" /></glyph>
   <glyph
   unicode="С"
   horiz-adv-x="664"
   id="glyph882"><path
     d="M539.989 490.013l75.0063 0 5.00042 169.986c-0.166681,0.166681 -4.50038,1.83349 -12.8344,5.1671 -8.33403,3.33361 -20.0017,7.50063 -34.6696,12.501 -14.6679,4.83374 -31.6693,9.83415 -50.8376,14.6679 -19.0016,5.00042 -39.3088,9.16743 -60.9773,12.501 -21.6685,3.33361 -43.5036,5.00042 -65.6721,5.1671 -51.3376,-0.166681 -97.6748,-8.83407 -138.845,-26.1688 -41.1701,-17.3348 -76.3397,-42.3369 -105.481,-75.0063 -29.1691,-32.6694 -51.671,-72.1727 -67.1723,-118.149 -15.5013,-46.1705 -23.3353,-98.0082 -23.502,-155.68 0.333361,-75.1729 13.1678,-138.178 38.5032,-189.488 25.5021,-51.1709 62.0052,-89.8408 109.648,-116.01 47.6706,-26.3355 105.009,-39.3366 171.848,-39.5033 25.0021,0.166681 48.6707,2.83357 70.6726,7.83399 22.0018,5.00042 42.3369,11.501 60.8106,19.3349 18.5015,8.00067 35.1696,16.5014 49.8375,25.3354 14.5012,8.83407 27.0023,17.3348 37.1698,25.3354 10.3342,7.83399 18.0015,14.3345 23.3353,19.3349 5.50046,5.00042 8.16735,7.66731 8.16735,7.83399l-40.0033 65.0054c-0.166681,-0.166681 -3.66697,-3.00025 -10.6676,-8.33403 -7.00058,-5.33378 -16.8347,-12.001 -29.5025,-19.835 -12.501,-7.83399 -27.3356,-15.8347 -44.0037,-23.6686 -16.807,-7.83399 -34.9751,-14.5012 -54.6434,-19.835 -19.6683,-5.33378 -40.0033,-8.16735 -61.1718,-8.33403 -31.3359,0 -60.1717,5.00042 -86.3405,15.3346 -26.1688,10.1675 -48.8374,26.0022 -68.0057,47.1706 -19.1683,21.1684 -34.1695,48.1429 -44.6704,80.979 -10.5009,32.6694 -15.8347,71.506 -16.0013,116.51 0.166681,61.8385 8.16735,113.843 24.502,156.18 16.168,42.3091 39.8367,74.3117 71.0059,96.1469 31.3359,21.6685 69.5058,32.6694 114.51,32.6694 25.1688,-0.166681 47.3373,-2.00017 66.5055,-5.1671 19.1683,-3.16693 34.1695,-6.33386 45.0038,-9.66747 10.8065,-3.16693 16.3069,-4.83374 16.4736,-5.1671l27.0023 -114.982z"
     id="path880" /></glyph>
   <glyph
   unicode="Т"
   horiz-adv-x="564"
   id="glyph886"><path
     d="M130.011 0l304.998 0 0 60.005 -100.008 20.0017 0 539.989 130.011 0 25.0021 -100.008 64.9776 0 0 180.015 -544.99 0 0 -180.015 65.0054 0 25.0021 100.008 129.983 0 0 -539.989 -99.9806 -20.0017 0 -60.005z"
     id="path884" /></glyph>
   <glyph
   unicode="Х"
   horiz-adv-x="700"
   id="glyph890"><path
     d="M75.0063 75.0063l-65.0054 -15.0013 0 -60.005 264.994 0 0 60.005 -85.0071 20.0017 150.013 199.989 140.012 -204.989 -60.005 -15.0013 0 -60.005 269.995 0 0 60.005 -85.0071 20.0017 -194.988 279.996 179.987 259.994 90.0075 20.0017 0 60.005 -264.994 -5.00042 0 -55.0046 70.0058 -20.0017 -130.011 -189.988 -130.011 189.988 65.0054 20.0017 0 60.005 -264.994 -5.00042 0 -55.0046 75.0063 -20.0017 184.988 -264.994 -209.99 -279.996z"
     id="path888" /></glyph>
   <glyph
   unicode="к"
   horiz-adv-x="585"
   id="glyph894"><path
     d="M295.007 305.015l-84.9918 0 0 224.989 -185.034 -5.00401 0 -55.0059 85.03 -19.9778 0 -370.029 -85.03 -24.9819 0 -55.0059 250.01 0 0 55.0059 -64.9757 24.9819 0 150.006 86.9781 0 143.015 -229.994 134.994 0 0 55.0059 -74.9838 24.9819 -1.03136 0 -128.997 200.008 103.022 178.005 0.993162 0 71.0111 11.9943 0 60.0099 -220.024 -5.00401 0 -55.0059 44.9979 -13.9807 -74.9838 -150.999z"
     id="path892" /></glyph>
   <glyph
   unicode="з"
   horiz-adv-x="461"
   id="glyph898"><path
     d="M98.0175 314.985l0 -69.9798 67.0003 0c28.4961,0 52.8286,-3.32327 72.9974,-10.008 20.3216,-6.64655 35.8302,-16.6546 46.6404,-29.9859 10.8484,-13.3313 16.1962,-30.0241 16.349,-50.0019 0,-19.0229 -4.85122,-35.0281 -14.1717,-48.1684 -9.32045,-13.0257 -22.8427,-22.9955 -40.3377,-29.6803 -17.4949,-6.83754 -38.6569,-10.1608 -63.486,-10.1608 -19.0229,0.152794 -37.6638,1.48974 -55.8463,4.01085 -18.3353,2.6739 -34.8371,5.65339 -49.8109,8.97666 -14.8592,3.36147 -26.8536,6.34096 -35.6775,9.01486 -8.82387,2.48291 -13.5223,3.81986 -13.6751,4.01085l-22.9955 -68.0316c0.152794,-0.152794 4.81302,-1.98632 13.8279,-5.50059 9.01486,-3.47607 21.5058,-7.48692 37.511,-11.9943 16.0052,-4.46923 34.4933,-8.48008 55.3115,-11.9943 21.0092,-3.47607 43.5082,-5.3096 67.3441,-5.50059 30.3297,-0.152794 59.0168,2.82669 86.1759,8.67107 27.1592,5.99717 51.1479,15.5086 72.3099,28.6871 21.2002,13.3313 37.8548,30.6352 49.8491,52.4848 12.1853,21.8496 18.4881,48.5122 18.6791,80.1788 0,20.1688 -5.195,38.3132 -15.1648,54.4711 -10.199,16.1962 -24.8291,29.8331 -44.0047,41.0252 -19.1757,11.3068 -42.324,19.4813 -69.827,24.4853 38.3132,8.67107 66.8093,23.4921 85.3356,44.5013 18.4881,21.162 27.8085,48.0156 27.6558,80.4844 -0.343787,30.0241 -8.82387,55.0059 -25.6694,75.022 -16.8456,20.016 -40.4905,34.9899 -70.6673,44.9979 -30.1769,10.008 -65.3195,15.012 -105.657,15.012 -20.8564,-0.190993 -41.178,-1.52794 -61.4997,-3.85805 -20.1688,-2.48291 -38.6951,-5.3096 -55.1969,-8.67107 -16.6546,-3.13228 -29.9859,-6.14997 -39.9939,-8.48008 -10.008,-2.5211 -14.9738,-3.81986 -15.3176,-4.01085l4.01085 -120.975 59.9717 0 7.02853 59.9717c0.305588,0.190993 4.96581,1.18416 13.9807,2.82669 9.16765,1.83353 21.0092,3.51427 35.6775,5.3478 14.6682,1.83353 30.3297,2.6739 47.328,2.82669 21.8496,0 40.4905,-2.48291 56.3429,-7.33412 15.8142,-5.00401 27.9995,-12.3381 36.6706,-22.308 8.48008,-9.85523 12.8347,-22.3462 12.9875,-37.3582 0,-19.8251 -4.50743,-35.983 -13.5223,-48.1684 -9.12945,-12.1471 -22.6517,-21.162 -40.4905,-26.6626 -17.9915,-5.50059 -40.3377,-8.32729 -67.0003,-8.17449l-70.9729 0z"
     id="path896" /></glyph>
   <glyph
   unicode="й"
   horiz-adv-x="694"
   id="glyph902"><path
     d="M353.986 614.997c24.6763,0.152794 47.8628,3.32327 69.5214,10.008 21.6586,6.64655 40.6433,16.158 57.336,28.6489 16.5018,12.5291 29.4893,27.503 38.8097,45.3417 9.35865,17.6859 14.1717,37.6638 14.3627,60.0099l-110.012 5.00401 0 -67.9934c-9.16765,-7.02853 -19.6723,-12.1853 -31.5138,-15.6996 -11.8416,-3.47607 -24.3325,-5.3096 -37.4728,-5.3096 -13.1785,0 -25.8604,1.83353 -38.0076,5.3096 -12.1853,3.51427 -22.8427,8.67107 -32.0104,15.6996l0 67.9934 -110.012 -5.00401c0.496581,-22.3462 5.3478,-42.324 14.6682,-60.0099 9.35865,-17.8387 22.1934,-32.8126 38.5041,-45.3417 16.349,-12.4909 35.1809,-22.0024 56.6867,-28.6489 21.5058,-6.68475 44.5013,-9.85523 69.1394,-10.008zm216.013 -164.98l84.9918 19.9778 0 60.0099 -245.006 -5.00401 0 -55.0059 65.0139 -19.9778 0 -25.0201 -255.014 -229.994 0 255.014 65.0139 19.9778 0 60.0099 -245.006 -5.00401 0 -55.0059 84.9918 -19.9778 0 -370.029 -84.9918 -24.9819 0 -55.0059 245.006 0 0 55.0059 -65.0139 24.9819 0 25.0201 255.014 229.994 0 -255.014 -65.0139 -24.9819 0 -55.0059 245.006 0 0 55.0059 -84.9918 24.9819 0 370.029z"
     id="path900" /></glyph>
   <glyph
   unicode="в"
   horiz-adv-x="595"
   id="glyph906"><path
     d="M124.986 77.0083l-84.9918 -22.0024 0 -55.0059 272.012 0c48.5122,-0.152794 89.652,5.15681 123.496,15.6614 33.9967,10.6574 59.8189,27.503 77.6577,50.3457 17.6859,22.8427 26.6626,52.4848 26.8536,89.0026 -0.190993,18.8319 -4.01085,35.6393 -11.4978,50.6513 -7.52512,15.012 -17.8387,27.9995 -31.0172,39.0007 -13.1785,11.0012 -28.1523,19.6723 -45.1507,26.357 -17.1894,6.64655 -35.1809,10.963 -54.3565,12.9875 23.4921,2.33011 44.5013,7.8307 62.8366,16.5018 18.1825,8.82387 32.6598,21.3148 43.1644,37.6638 10.5046,16.3108 15.8524,36.9762 16.0052,61.8435 -0.152794,19.9778 -4.16364,38.1604 -12.3381,53.9746 -8.17449,16.0052 -19.3285,29.6803 -33.8439,41.0252 -14.4773,11.3068 -31.4756,19.9778 -50.8041,25.975 -19.3285,5.99717 -40.3377,9.01486 -63.0276,9.01486l-134.994 0 -184.996 -5.00401 0 -55.0059 84.9918 -16.9984 0 -375.988zm100.004 235.991l0 144.009 117.002 0c25.1728,-0.190993 44.3485,-6.49375 57.8326,-19.1757 13.3313,-12.4909 20.016,-30.1769 20.1688,-52.8286 0,-18.1825 -4.01085,-32.507 -11.8416,-43.1644 -7.8307,-10.5046 -18.8319,-17.9915 -33.3091,-22.3462 -14.5155,-4.50743 -31.6666,-6.64655 -51.8354,-6.49375l-98.0175 0zm0 -240.002l0 174.988 93.0135 0c27.312,0.190993 49.5053,-3.17048 66.8475,-9.81703 17.1512,-6.68475 29.9859,-17.1512 37.9694,-31.6666 8.17449,-14.3245 12.3381,-33.1563 12.1853,-56.4957 -0.152794,-27.3502 -10.5046,-47.0224 -30.8262,-59.1696 -20.3598,-12.1853 -49.5053,-17.9915 -87.1691,-17.8387l-92.0203 0z"
     id="path904" /></glyph>
   <glyph
   unicode="е"
   horiz-adv-x="540"
   id="glyph910"><path
     d="M490.011 251.996c0,0.152794 0.496581,3.01769 1.33695,8.17449 0.80217,5.3478 1.48974,11.9943 2.33011,19.9778 0.840368,8.0217 1.33695,16.349 1.33695,24.8673 0.152794,50.1547 -7.33412,92.6697 -22.1934,127.66 -14.9738,34.8371 -37.8166,61.4997 -68.9866,79.835 -31.0172,18.1443 -70.5145,27.312 -118.836,27.503 -36.3268,-0.190993 -69.4832,-7.33412 -99.5072,-21.162 -29.8331,-14.0189 -55.6553,-33.6911 -77.3139,-58.864 -21.6968,-25.1346 -38.5041,-54.8149 -50.3457,-88.6588 -11.6506,-33.9967 -17.6477,-71.1639 -17.8387,-111.311 0,-55.3497 8.82387,-103.022 26.6626,-143.359 17.8387,-40.3377 44.5013,-71.3167 80.026,-93.3191 35.4865,-22.0024 79.9878,-33.0036 133.313,-33.3473 24.1797,0.190993 46.8314,3.17048 68.1844,8.67107 21.5058,5.50059 40.9871,12.3381 58.6348,20.5126 17.6859,8.17449 32.8508,16.5018 45.8383,24.6763 12.8347,8.13629 22.6899,14.9738 29.6803,20.4744 6.99034,5.50059 10.6574,8.51828 10.6574,8.67107l-34.9899 51.9882c0,-0.152794 -2.6739,-1.98632 -7.8307,-5.65339 -5.15681,-3.66706 -12.6819,-8.32729 -22.4989,-13.6751 -9.85523,-5.50059 -21.5058,-10.8102 -35.3337,-16.3108 -13.8279,-5.3478 -29.1837,-10.008 -46.4876,-13.6751 -17.1894,-3.66706 -35.8684,-5.50059 -55.8463,-5.65339 -28.8399,0.152794 -54.1656,7.63971 -75.8241,22.1552 -21.6968,14.6682 -38.5041,35.4865 -50.6895,62.34 -12.1471,26.8154 -18.3353,58.6348 -18.4881,95.4964l345.009 1.98632zm-340.999 72.9974c1.48974,18.8319 5.50059,36.5178 11.6506,53.0196 6.34096,16.5018 15.012,30.979 26.0132,43.6609 11.154,12.4909 24.3325,22.308 39.9939,29.4893 15.5086,7.18133 33.3473,10.6574 53.3252,10.8484 20.016,-0.190993 36.8234,-3.66706 50.8423,-10.8484 13.8279,-7.18133 25.1728,-16.9984 33.6529,-29.4893 8.67107,-12.6819 14.8592,-27.1592 18.6791,-43.6609 4.01085,-16.5018 5.84438,-34.1877 5.84438,-53.0196l-240.002 0z"
     id="path908" /></glyph>
   <glyph
   unicode="п"
   horiz-adv-x="685"
   id="glyph914"><path
     d="M559.991 450.017l84.9918 19.9778 0 60.0099 -419.993 0 -184.996 -5.00401 0 -55.0059 84.9918 -19.9778 0 -370.029 -84.9918 -24.9819 0 -55.0059 250.01 0 0 55.0059 -65.0139 24.9819 0 370.029 234.998 0 0 -370.029 -64.9757 -24.9819 0 -55.0059 249.971 0 0 55.0059 -84.9918 24.9819 0 370.029z"
     id="path912" /></glyph>
   <glyph
   unicode="а"
   horiz-adv-x="564"
   id="glyph918"><path
     d="M79.9878 374.995l65.0139 0 13.9807 75.022c0.190993,0.152794 4.35464,1.48974 12.8347,3.81986 8.51828,2.48291 20.1688,4.81302 35.3337,7.33412 15.1648,2.33011 32.698,3.66706 52.8668,3.81986 30.1387,0 53.478,-7.48692 69.9798,-22.4989 16.5018,-14.9738 24.8291,-37.511 25.0201,-67.4968l0 -79.9878 -80.026 0c-46.8314,0.152794 -87.4747,-4.66022 -121.815,-14.6682 -34.3405,-10.008 -60.8503,-26.357 -79.6822,-49.0087 -18.6791,-22.8427 -28.1523,-53.1724 -28.4961,-91.3327 0.152794,-31.8194 5.99717,-58.8258 17.8387,-81.1719 11.6506,-22.308 28.6489,-39.3445 50.9951,-50.9951 22.3462,-11.8416 49.3525,-17.6477 81.1719,-17.8387 17.4949,0.190993 34.3405,2.6739 50.3457,7.67791 16.158,5.00401 31.1318,11.4978 45.1507,19.6723 14.0189,7.9835 26.8154,16.5018 38.3514,25.8222 11.6506,9.16765 21.6586,18.1825 30.1387,26.8536l21.0092 -70.018 155.01 5.00401 0 55.0059 -80.026 19.9778 0 305.015c-0.152794,38.1604 -7.48692,68.49 -22.1552,91.3327 -14.6682,22.6517 -35.8302,39.0007 -63.3332,49.0087 -27.503,9.96982 -60.6593,14.821 -99.5072,14.6682 -17.1512,-0.190993 -34.8371,-1.52794 -52.8286,-4.16364 -18.1443,-2.6739 -35.6775,-5.99717 -52.4848,-9.85523 -16.8456,-4.01085 -32.0104,-7.9835 -45.4945,-11.8416 -13.5223,-3.97265 -24.1797,-7.33412 -32.0104,-9.96982 -7.9835,-2.6739 -11.9943,-4.01085 -12.1853,-4.16364l5.00401 -125.024zm275.03 -145.002l0 -79.9878c0,-0.190993 -2.36831,-3.01769 -6.83754,-8.32729 -4.50743,-5.3478 -10.8484,-11.9943 -19.0229,-19.8632 -8.32729,-7.8307 -17.9915,-15.8142 -29.1455,-23.6449 -11.345,-7.8307 -23.6831,-14.5155 -37.1672,-19.8251 -13.5223,-5.3478 -27.8467,-8.17449 -42.8588,-8.32729 -14.9738,0.152794 -27.9995,3.13228 -39.0007,9.47324 -10.8102,6.18817 -19.1375,14.8592 -24.9819,26.0132 -5.99717,11.345 -9.01486,24.3325 -9.01486,39.4973 -0.152794,20.016 4.35464,36.174 13.5223,48.665 9.16765,12.4909 23.9887,21.8496 44.3103,27.6558 20.1688,5.84438 47.0224,8.67107 80.1788,8.67107l70.018 0z"
     id="path916" /></glyph>
   <glyph
   unicode="н"
   horiz-adv-x="685"
   id="glyph922"><path
     d="M559.991 450.017l84.9918 19.9778 0 60.0099 -249.971 -5.00401 0 -55.0059 64.9757 -19.9778 0 -135.032 -234.998 0 0 135.032 65.0139 19.9778 0 60.0099 -250.01 -5.00401 0 -55.0059 84.9918 -19.9778 0 -370.029 -84.9918 -24.9819 0 -55.0059 250.01 0 0 55.0059 -65.0139 24.9819 0 160.014 234.998 0 0 -160.014 -64.9757 -24.9819 0 -55.0059 249.971 0 0 55.0059 -84.9918 24.9819 0 370.029z"
     id="path920" /></glyph>
  </font>
  <font
   id="FontID0"
   font-variant="normal"
   style="fill-rule:nonzero"
   font-style="normal"
   font-weight="400"
   horiz-origin-x="0"
   horiz-origin-y="0"
   horiz-adv-x="1024"
   vert-origin-x="512"
   vert-origin-y="768"
   vert-adv-y="1024">
	<font-face
   font-family="DIN Pro Regular"
   id="font-face925">
	</font-face>
   <missing-glyph
   id="missing-glyph929"><path
     d="M0 0z"
     id="path927" /></missing-glyph>
   <glyph
   unicode="ч"
   horiz-adv-x="522"
   id="glyph933"><path
     d="M433.018 0l0 491.978 -71.9995 0 0 -237.995c-17.3479,-3.62832 -37.5305,-7.31334 -60.661,-10.6582 -23.1873,-3.34486 -47.5084,-5.15902 -73.3602,-5.3291 -18.3117,-0.170078 -33.8455,2.66455 -46.4879,8.33381 -12.6991,5.66926 -22.1668,15.0235 -28.6864,28.0061 -6.46295,12.8125 -9.80781,30.1604 -9.80781,51.6469l0 165.996 -71.9995 0 0 -178.978c0.170078,-32.3148 6.17949,-58.6768 17.9715,-79.3129 11.8487,-20.6928 28.3463,-35.9998 49.6627,-45.8643 21.3731,-9.97789 46.5446,-14.7968 75.3444,-14.7968 19.1621,0.113385 37.7005,1.13385 55.502,3.11809 17.8582,2.04093 34.6958,4.5354 50.343,7.37003 15.6471,3.00471 29.8203,5.83933 42.1793,8.50388l0 -192.018 71.9995 0z"
     id="path931" /></glyph>
   <glyph
   unicode="ц"
   horiz-adv-x="579"
   id="glyph937"><path
     d="M545.963 -146.999l0 209.039 -73.9451 0 0 429.983 -72.0013 0 0 -429.983 -238.034 0 0 429.983 -70.9484 0 0 -492.022 384.952 0 0 -146.999 69.9765 0z"
     id="path935" /></glyph>
   <glyph
   unicode="ф"
   horiz-adv-x="689"
   id="glyph941"><path
     d="M630.032 247.024c-0.161983,53.6163 -10.2049,98.6474 -29.8858,134.77 -19.8429,36.3651 -48.1089,64.0641 -85.2839,83.3401 -37.013,19.3569 -81.7203,30.2098 -133.879,32.8825l0 213.979 -72.0013 0 0 -213.979c-52.1584,-2.67271 -96.7846,-13.5256 -133.798,-32.8825 -37.175,-19.2759 -65.522,-46.975 -85.3649,-83.3401 -19.6809,-36.1221 -29.6428,-81.1533 -29.8048,-134.77 0.161983,-54.0212 10.2859,-99.2144 30.1288,-135.822 19.8429,-36.5271 48.3518,-64.5501 85.3649,-84.069 37.175,-19.4379 81.6393,-30.4527 133.474,-33.1255l0 -213.979 72.0013 0 0 213.979c51.8345,2.67271 96.3797,13.6875 133.555,33.1255 36.932,19.5189 65.441,47.5419 85.2839,84.069 20.0049,36.6081 30.0478,81.8012 30.2098,135.822zm-72.0013 -1.05289c0,-37.823 -6.72228,-70.6244 -19.8429,-98.3235 -13.3636,-27.618 -33.0445,-49.1617 -59.3666,-64.6311 -26.1602,-15.5503 -58.7997,-23.8115 -97.8375,-25.0263l0 376.043c42.1965,-1.53884 76.3748,-10.5289 102.373,-26.7271 25.9982,-16.2793 44.9502,-38.1469 56.9369,-65.765 12.0677,-27.861 17.8991,-59.5286 17.7371,-95.5698zm-249.048 -187.981c-38.9568,1.21487 -71.6773,9.47599 -97.8375,25.0263 -26.3222,15.4693 -46.0031,37.013 -59.2857,64.6311 -13.2016,27.699 -19.8429,60.5005 -19.8429,98.3235 -0.161983,36.0411 5.83138,67.7088 17.8181,95.5698 12.1487,27.618 31.1817,49.4857 57.3419,65.765 25.9982,16.1983 60.0146,25.1883 101.806,26.7271l0 -376.043z"
     id="path939" /></glyph>
   <glyph
   unicode="ы"
   horiz-adv-x="717"
   id="glyph945"><path
     d="M616.992 0l0 492.022 -72.0013 0 0 -492.022 72.0013 0zm-150.968 147.971c-0.161983,30.2098 -6.72228,56.37 -19.5189,78.7236 -12.8776,22.1106 -31.0197,39.4428 -54.3452,51.6725 -23.1635,12.3107 -50.6196,18.466 -82.1252,18.628l-148.052 0 0 195.027 -70.9484 0 0 -492.022 219.001 0c31.5056,0.161983 58.9617,6.31732 82.1252,18.628 23.3255,12.2297 41.4676,29.3999 54.3452,51.3485 12.7966,22.1916 19.3569,48.1898 19.5189,77.9947zm-72.0013 0c0,-27.618 -7.85616,-48.8378 -23.4875,-63.6592 -15.5503,-14.6594 -38.3899,-22.1106 -68.5187,-22.2726l-140.034 0 0 171.945 140.034 0c30.1288,-0.161983 52.9683,-7.61319 68.5187,-22.3536 15.6313,-14.8214 23.4875,-35.9602 23.4875,-63.6592z"
     id="path943" /></glyph>
   <glyph
   unicode="х"
   horiz-adv-x="478"
   id="glyph949"><path
     d="M444.966 0l-167.004 250.992 160.039 241.03 -86.9847 0 -111.039 -181.988 -112.983 181.988 -86.9847 0 159.958 -241.03 -167.004 -250.992 87.0657 0 119.948 190.978 118.004 -190.978 86.9847 0z"
     id="path947" /></glyph>
   <glyph
   unicode="т"
   horiz-adv-x="423"
   id="glyph953"><path
     d="M412.975 429.983l0 62.0394 -401.96 0 0 -62.0394 168.948 0 0 -429.983 72.0013 0 0 429.983 161.011 0z"
     id="path951" /></glyph>
   <glyph
   unicode="р"
   horiz-adv-x="544"
   id="glyph957"><path
     d="M481.008 245.971c0.161983,26.5652 -1.37685,52.7254 -4.6975,78.3996 -3.32064,25.8362 -9.314,49.8097 -17.9801,72.3253 -8.66607,22.2726 -21.1387,41.7915 -37.337,58.3138 -13.1206,13.1206 -29.9668,23.6495 -50.6196,31.3436 -20.5718,7.61319 -43.7353,11.5008 -69.4096,11.6628 -18.304,0.161983 -35.3122,-1.70082 -51.2675,-5.34543 -16.0363,-3.64461 -31.1817,-10.0429 -45.6791,-19.3569 -14.3355,-9.314 -28.347,-22.5156 -42.0345,-39.2808l0 57.9898 -72.0013 0 0 -711.995 72.0013 0 0 277.962c13.6875,-16.8462 27.699,-29.9668 42.3585,-39.3618 14.4974,-9.15202 29.8048,-15.6313 45.6791,-19.2759 15.9553,-3.7256 32.9635,-5.50741 50.9435,-5.34543 25.6743,0.161983 48.8378,4.13056 69.4096,11.8247 20.6528,7.69418 37.499,17.9801 50.6196,31.1817 16.1983,16.8462 28.6709,36.5271 37.337,58.7997 8.66607,22.3536 14.6594,46.327 17.9801,72.0013 3.32064,25.6743 4.85948,51.6725 4.6975,78.1566l0 0zm-72.0013 0c0.161983,-24.1354 -1.13388,-47.4609 -4.21155,-69.8145 -2.99668,-22.3536 -8.66607,-42.5205 -17.0892,-60.1766 -8.50409,-17.6561 -21.0577,-31.8296 -37.337,-42.1155 -16.3602,-10.3669 -37.9039,-15.7123 -64.3881,-15.8743 -26.8081,0.161983 -48.5138,5.50741 -64.955,15.8743 -16.5222,10.2859 -28.9949,24.4594 -37.499,42.1155 -8.50409,17.6561 -14.3355,37.823 -17.3321,60.1766 -2.99668,22.3536 -4.37353,45.6791 -4.21155,69.8145 -0.161983,24.2164 1.21487,47.5419 4.21155,69.8955 2.99668,22.2726 8.82806,42.4395 17.3321,60.0956 8.50409,17.7371 20.9768,31.9106 37.499,42.1965 16.4412,10.3669 38.1469,15.7123 64.955,15.8743 26.4842,-0.161983 48.0279,-5.50741 64.3881,-15.8743 16.2793,-10.2859 28.8329,-24.4594 37.337,-42.1965 8.4231,-17.6561 14.0925,-37.823 17.0892,-60.0956 3.07767,-22.3536 4.37353,-45.6791 4.21155,-69.8955l0 0z"
     id="path955" /></glyph>
   <glyph
   unicode="ь"
   horiz-adv-x="506"
   id="glyph961"><path
     d="M466.024 147.971c-0.161983,30.2098 -6.72228,56.37 -19.5189,78.7236 -12.8776,22.1106 -31.0197,39.4428 -54.3452,51.6725 -23.1635,12.3107 -50.6196,18.466 -82.1252,18.628l-148.052 0 0 195.027 -70.9484 0 0 -492.022 219.001 0c31.5056,0.161983 58.9617,6.31732 82.1252,18.628 23.3255,12.2297 41.4676,29.3999 54.3452,51.3485 12.7966,22.1916 19.3569,48.1898 19.5189,77.9947zm-72.0013 0c0,-27.618 -7.85616,-48.8378 -23.4875,-63.6592 -15.5503,-14.6594 -38.3899,-22.1106 -68.5187,-22.2726l-140.034 0 0 171.945 140.034 0c30.1288,-0.161983 52.9683,-7.61319 68.5187,-22.3536 15.6313,-14.8214 23.4875,-35.9602 23.4875,-63.6592z"
     id="path959" /></glyph>
   <glyph
   unicode="ю"
   horiz-adv-x="728"
   id="glyph965"><path
     d="M663.967 245.971c0.161983,25.5123 -1.29586,49.8907 -4.45452,73.5401 -3.15866,23.4875 -8.99004,45.6791 -17.6561,66.3319 -8.82806,20.6528 -21.3817,39.3618 -37.823,56.127 -17.0082,17.7371 -37.175,31.3436 -60.6625,41.2246 -23.5685,9.63797 -50.3766,14.6594 -80.3434,14.8214 -30.0478,-0.161983 -56.6939,-5.18345 -80.1814,-14.8214 -23.4875,-9.88094 -43.8163,-23.4875 -60.8245,-41.2246 -13.8495,-13.9305 -25.0263,-29.4808 -33.3684,-46.327 -8.34211,-16.8462 -14.3355,-34.6643 -18.304,-53.6163 -4.04957,-19.033 -6.47931,-38.7139 -7.37021,-59.0427l-100.996 0 0 209.039 -70.9484 0 0 -492.022 70.9484 0 0 221.997 100.024 0c0.485948,-22.3536 2.67271,-43.8163 6.47931,-64.3071 3.64461,-20.4908 9.88094,-39.8477 18.385,-57.9898 8.66607,-18.0611 20.3288,-34.6643 35.1502,-49.7287 17.0082,-17.6561 37.337,-31.3436 60.8245,-41.1436 23.4875,-9.63797 50.1336,-14.6594 80.1814,-14.8214 29.9668,0.161983 56.7749,5.18345 80.3434,14.8214 23.4875,9.79995 43.6543,23.4875 60.6625,41.1436 16.4412,17.0082 29.1569,36.0411 37.823,56.6939 8.66607,20.6528 14.6594,42.6824 17.6561,66.1699 3.15866,23.3255 4.61651,47.8659 4.45452,73.1352l0 0zm-72.0013 0c0.161983,-18.466 -0.485948,-36.932 -1.94379,-55.641 -1.70082,-18.466 -5.34543,-36.2031 -10.8528,-52.6444 -5.66939,-16.6842 -14.3355,-31.1817 -26.1602,-43.6543 -23.9734,-24.0544 -54.0212,-36.0411 -89.9814,-36.0411 -17.4941,0 -33.8544,2.99668 -48.9998,8.99004 -15.0644,5.99336 -28.347,14.9834 -40.0097,27.0511 -12.1487,12.4727 -21.0577,26.9701 -26.8891,43.6543 -5.5884,16.4412 -9.314,34.1783 -10.9338,52.6444 -1.70082,18.709 -2.34875,37.175 -2.18677,55.641 -0.161983,18.871 0.647931,37.661 2.34875,56.37 1.78181,18.628 5.50741,36.1221 11.3388,52.6444 5.66939,16.5222 14.4974,30.8577 26.3222,43.0064 11.9867,11.9867 25.5123,20.9768 40.3337,26.9701 14.9834,6.07435 31.1817,9.07103 48.6758,9.07103 35.9602,0 66.0079,-12.0677 89.9814,-36.0411 11.8247,-12.1487 20.4908,-26.4842 26.1602,-43.0064 5.50741,-16.5222 9.15202,-34.0164 10.8528,-52.6444 1.45784,-18.709 2.10577,-37.499 1.94379,-56.37z"
     id="path963" /></glyph>
   <glyph
   unicode="ш"
   horiz-adv-x="801"
   id="glyph969"><path
     d="M709.97 0l0 492.022 -72.0013 0 0 -429.983 -201.992 0 0 429.983 -72.0013 0 0 -429.983 -201.992 0 0 429.983 -70.9484 0 0 -492.022 618.936 0z"
     id="path967" /></glyph>
   <glyph
   unicode="с"
   horiz-adv-x="489"
   id="glyph973"><path
     d="M443.023 66.9798l-48.9998 47.056c-8.50409,-8.90905 -16.0363,-16.1983 -22.1916,-22.0296 -6.15534,-5.66939 -12.1487,-10.3669 -17.6561,-14.0115 -5.66939,-3.80659 -11.6628,-7.12724 -18.1421,-9.96193 -8.01814,-3.56362 -16.3602,-5.99336 -25.1883,-7.69418 -8.82806,-1.53884 -18.385,-2.34875 -28.8329,-2.34875 -48.5138,0 -85.2029,15.8743 -109.824,47.5419 -24.7024,31.5056 -37.175,78.4806 -37.175,140.439 0.161983,62.2013 12.6346,109.014 37.661,140.52 25.0263,31.6676 61.6344,47.5419 110.31,47.5419 10.5289,0 20.3288,-1.05289 29.3189,-2.8347 9.23301,-1.8628 17.7371,-4.6975 25.6743,-8.18012 6.15534,-2.51073 11.9867,-5.66939 17.3321,-9.15202 5.50741,-3.56362 11.1768,-8.01814 17.3321,-13.6875 5.99336,-5.50741 13.2016,-12.4727 21.3817,-21.1387l48.9998 45.9221c-10.8528,11.1768 -20.3288,20.4098 -28.347,27.5371 -8.18012,7.20823 -15.8743,13.0396 -23.3255,17.6561 -7.37021,4.6975 -15.5503,8.99004 -24.3784,12.8776 -11.9867,4.94047 -24.7833,8.82806 -38.4709,11.3388 -13.6875,2.42974 -28.5089,3.64461 -44.4642,3.64461 -46.1651,-0.161983 -85.6888,-10.3669 -118.733,-30.5337 -32.8015,-20.0049 -58.1518,-48.8378 -75.6459,-86.3368 -17.6561,-37.499 -26.4842,-82.6112 -26.6461,-135.175 0.161983,-52.4824 8.99004,-97.4326 26.6461,-135.175 17.4941,-37.499 42.8444,-66.3319 75.6459,-86.2558 33.0445,-20.1668 72.5682,-30.3718 118.733,-30.5337 15.9553,0 30.7767,1.29586 44.4642,3.80659 13.6875,2.51073 26.4842,6.15534 38.4709,11.1768 8.82806,3.80659 17.0082,8.18012 24.3784,12.8776 7.4512,4.61651 15.1454,10.4479 23.3255,17.6561 8.01814,7.12724 17.4941,16.2793 28.347,27.4561z"
     id="path971" /></glyph>
   <glyph
   unicode="у"
   horiz-adv-x="446"
   id="glyph977"><path
     d="M435.976 492.022l-77.9947 0 -133.96 -394.995 -135.013 394.995 -77.9947 0 176.966 -482.06 -34.9883 -95.9747c-5.83138,-16.1173 -11.9867,-28.6709 -18.466,-37.661 -6.72228,-8.82806 -14.8214,-14.9834 -24.7024,-18.466 -9.63797,-3.32064 -22.3536,-5.02146 -37.823,-4.85948l-22.0296 0 0 -63.9832 31.0197 0c33.3684,-0.161983 60.6625,7.28922 82.0442,22.3536 21.3007,14.9834 37.661,38.3089 48.9998,69.6525l223.941 610.999z"
     id="path975" /></glyph>
   <glyph
   unicode="я"
   horiz-adv-x="527"
   id="glyph981"><path
     d="M365.028 251.964l-139.062 0c-31.6676,0.242974 -55.803,8.01814 -72.6492,23.7305 -16.6842,15.4693 -25.1883,37.661 -25.3503,66.3319 0.161983,29.1569 8.66607,51.6725 25.3503,67.3038 16.8462,15.6313 40.9816,23.4875 72.6492,23.6495l139.062 0 0 -181.016zm-224.994 -251.964l106.99 193.002 118.004 0 0 -193.002 70.9484 0 0 492.022 -223.941 0c-31.1817,-0.161983 -58.3948,-6.31732 -81.5583,-18.547 -23.1635,-12.1487 -41.1436,-29.3189 -53.9402,-51.3485 -12.8776,-21.7867 -19.3569,-47.6229 -19.5189,-77.1037 0.161983,-25.1883 4.77849,-47.5419 14.3355,-67.3848 9.314,-19.5999 22.6776,-35.9602 39.6858,-48.9998 17.0892,-12.9586 37.499,-21.7867 60.9865,-26.6461l-115.008 -201.992 83.0161 0z"
     id="path979" /></glyph>
   <glyph
   unicode="-"
   horiz-adv-x="425"
   id="glyph985"><path
     d="M350.02 236.011l0 67.0106 -273.995 0 0 -67.0106 273.995 0z"
     id="path983" /></glyph>
   <glyph
   unicode="!"
   horiz-adv-x="316"
   id="glyph989"><path
     d="M214.978 712.002l-82.9979 0 10.0346 -511.99 61.965 0 10.9984 511.99zm1.02047 -712.002l0 84.0184 -86.0026 0 0 -84.0184 86.0026 0z"
     id="path987" /></glyph>
   <glyph
   unicode="%"
   horiz-adv-x="832"
   id="glyph993"><path
     d="M277 480.98c0.170078,-27.1557 -5.66926,-48.3021 -17.8582,-63.1555 -12.1322,-14.9668 -31.8045,-22.677 -59.1303,-22.8471 -27.3258,0.170078 -47.1682,7.88027 -59.6973,22.8471 -12.3023,14.8534 -18.4818,35.9998 -18.3117,63.1555l0 101.026c-0.170078,27.3258 6.00941,48.4721 18.3117,63.8358 12.5291,15.1369 32.3714,23.0172 59.6973,23.1306 27.3258,-0.113385 46.9981,-7.99365 59.1303,-23.1306 12.1889,-15.3637 18.0282,-36.51 17.8582,-63.8358l0 -101.026zm57.9965 -1.98424l0 104.995c-0.170078,27.836 -6.17949,51.817 -17.6881,71.8295 -11.4519,20.1826 -27.4959,35.6596 -47.6217,46.658 -20.1826,10.8283 -43.5399,16.3841 -69.6752,16.4975 -26.192,-0.113385 -49.4926,-5.66926 -69.6752,-16.4975 -20.1826,-10.9984 -36.1699,-26.4754 -47.6784,-46.658 -11.5086,-20.0125 -17.518,-43.9934 -17.6314,-71.8295l0 -104.995c0.113385,-27.836 6.1228,-51.6469 17.6314,-71.6594 11.5086,-20.0125 27.4959,-35.3195 47.6784,-45.9777 20.1826,-10.885 43.4832,-16.2141 69.6752,-16.3841 26.1353,0.170078 49.4926,5.49918 69.6752,16.3841 20.1259,10.6582 36.1699,25.9652 47.6217,45.9777 11.5086,20.0125 17.518,43.8233 17.6881,71.6594zm375.985 -348.999c0.170078,-27.666 -5.66926,-48.9824 -17.8015,-64.176 -12.1889,-14.9668 -31.8612,-22.677 -59.187,-22.8471 -27.3258,0.170078 -47.1682,7.88027 -59.6406,22.8471 -12.359,15.1936 -18.5385,36.51 -18.3684,64.176l0 100.006c-0.170078,27.3258 6.00941,48.4721 18.3684,63.8358 12.4724,15.1369 32.3148,23.0172 59.6406,23.1873 27.3258,-0.170078 46.9981,-8.05034 59.187,-23.1873 12.1322,-15.3637 18.1416,-36.51 17.8015,-63.8358l0 -100.006zm57.9965 -3.00471l0 104.995c-0.170078,27.836 -6.1228,51.8737 -17.6314,71.8295 -11.5086,20.1826 -27.4959,35.6596 -47.6784,46.658 -20.1826,10.885 -43.4832,16.3841 -69.6752,16.5542 -26.1353,-0.170078 -49.4926,-5.66926 -69.6752,-16.5542 -20.1259,-10.9984 -36.1699,-26.4754 -47.6784,-46.658 -11.4519,-19.9558 -17.4613,-43.9934 -17.6314,-71.8295l0 -104.995c0.170078,-27.4959 6.17949,-51.1367 17.6314,-71.1492 11.5086,-20.0125 27.5526,-35.4895 47.6784,-46.3178 20.1826,-10.885 43.5399,-16.3841 69.6752,-16.4975 26.192,0.113385 49.4926,5.61256 69.6752,16.4975 20.1826,10.8283 36.1699,26.3053 47.6784,46.3178 11.5086,20.0125 17.4613,43.6533 17.6314,71.1492zm-154.997 585.01l-59.9807 0 -333.976 -712.002 59.9807 0 333.976 712.002z"
     id="path991" /></glyph>
   <glyph
   unicode="."
   horiz-adv-x="270"
   id="glyph997"><path
     d="M181.988 0l0 94.0309 -93.9499 0 0 -94.0309 93.9499 0z"
     id="path995" /></glyph>
   <glyph
   unicode=")"
   horiz-adv-x="297"
   id="glyph1001"><path
     d="M112.011 -94.0309c11.6628,11.5008 21.7867,21.8677 30.4527,31.0197 8.66607,9.15202 16.3602,17.9801 23.0015,26.6461 6.88426,8.66607 12.8776,18.2231 18.547,28.347 8.66607,17.3321 14.4974,34.1783 17.1702,50.8626 2.8347,16.5222 3.96858,33.8544 3.80659,52.1584l0 521.989c0.161983,17.9801 -0.971896,35.4742 -3.80659,52.6444 -2.67271,17.0082 -8.50409,33.8544 -17.1702,50.3766 -5.66939,10.1239 -11.8247,19.6809 -18.709,28.5089 -6.80327,8.82806 -14.6594,17.8181 -23.3255,26.9701 -8.66607,9.15202 -18.628,19.3569 -29.9668,30.5337l-51.0245 -51.0245c8.99004,-8.18012 16.8462,-15.8743 23.6495,-22.6776 6.72228,-6.80327 12.7156,-13.6875 17.8991,-20.3288 4.94047,-6.80327 9.47599,-14.1735 13.4446,-22.0296 5.34543,-9.96193 9.15202,-21.4627 11.1768,-34.6643 2.02478,-12.9586 2.99668,-27.78 2.8347,-44.3023l0 -510.002c0.161983,-16.1983 -0.647931,-30.5337 -2.51073,-42.8444 -1.78181,-12.3107 -5.66939,-24.4594 -11.5008,-36.1221 -3.96858,-7.85616 -8.50409,-15.2264 -13.8495,-22.0296 -5.10245,-6.64129 -11.0958,-13.5256 -17.9801,-20.3288 -6.80327,-6.80327 -14.4974,-14.4974 -23.1635,-22.6776l51.0245 -51.0245z"
     id="path999" /></glyph>
   <glyph
   unicode="("
   horiz-adv-x="297"
   id="glyph1005"><path
     d="M236.009 -43.0064c-8.66607,8.18012 -16.3602,15.8743 -23.1635,22.6776 -6.88426,6.80327 -12.8776,13.6875 -17.9801,20.3288 -5.34543,6.80327 -9.88094,14.1735 -13.8495,22.0296 -5.83138,11.6628 -9.71896,23.8115 -11.5008,36.1221 -1.8628,12.3107 -2.67271,26.6461 -2.51073,42.8444l0 510.002c-0.161983,16.5222 0.809913,31.3436 2.8347,44.3023 2.02478,13.2016 5.83138,24.7024 11.1768,34.6643 3.96858,7.85616 8.50409,15.2264 13.6875,22.0296 4.94047,6.64129 10.9338,13.5256 17.6561,20.3288 6.80327,6.80327 14.6594,14.4974 23.6495,22.6776l-51.0245 51.0245c-11.3388,-11.1768 -21.3007,-21.3817 -29.9668,-30.5337 -8.66607,-9.15202 -16.5222,-18.1421 -23.3255,-26.9701 -6.88426,-8.82806 -13.0396,-18.385 -18.709,-28.5089 -8.66607,-16.5222 -14.4974,-33.3684 -17.1702,-50.3766 -2.8347,-17.1702 -3.96858,-34.6643 -3.80659,-52.6444l0 -521.989c-0.161983,-18.304 0.971896,-35.6362 3.80659,-52.1584 2.67271,-16.6842 8.50409,-33.5304 17.1702,-50.8626 5.66939,-10.1239 11.6628,-19.6809 18.547,-28.347 6.64129,-8.66607 14.3355,-17.4941 23.0015,-26.6461 8.82806,-9.15202 18.79,-19.5189 30.4527,-31.0197l51.0245 51.0245z"
     id="path1003" /></glyph>
   <glyph
   unicode=","
   horiz-adv-x="264"
   id="glyph1009"><path
     d="M175.994 -65.036l0 153.074 -87.9566 0 0 -232.04 87.9566 78.9666z"
     id="path1007" /></glyph>
   <glyph
   unicode=" "
   horiz-adv-x="248"
   id="glyph1011" />
   <glyph
   unicode="0"
   horiz-adv-x="522"
   id="glyph1015"><path
     d="M455.978 189.977l0 332.048c-0.170078,29.6502 -5.15902,56.4658 -14.7968,80.4467 -9.8645,24.0376 -23.5274,44.5037 -40.9887,61.8516 -17.6881,17.1778 -38.2108,30.3305 -61.8516,39.6848 -23.6975,9.18419 -49.4926,13.833 -77.3286,14.0031 -28.1762,-0.170078 -54.028,-4.81887 -77.6688,-14.0031 -23.6975,-9.35427 -44.3336,-22.5069 -61.8516,-39.6848 -17.518,-17.3479 -31.1809,-37.8139 -40.8186,-61.8516 -9.69443,-23.981 -14.5133,-50.7965 -14.6834,-80.4467l0 -332.048c0.170078,-29.6502 4.98894,-56.2957 14.6834,-80.3334 9.63773,-23.981 23.3006,-44.617 40.8186,-61.7949 17.518,-17.3479 38.1541,-30.5006 61.8516,-39.8549 23.6408,-9.18419 49.4926,-13.833 77.6688,-14.0031 27.836,0.170078 53.6312,4.81887 77.3286,14.0031 23.6408,9.35427 44.1635,22.5069 61.8516,39.8549 17.4613,17.1778 31.1242,37.8139 40.9887,61.7949 9.63773,24.0376 14.6267,50.6831 14.7968,80.3334zm-71.9995 4.02517c0,-26.192 -4.81887,-49.4926 -14.2865,-70.0153 -9.52435,-20.2959 -23.3573,-36.3399 -41.669,-47.9619 -18.3684,-11.8487 -40.7053,-17.8582 -67.0106,-18.0282 -26.362,0.170078 -48.6989,6.17949 -67.0106,18.0282 -18.3117,11.622 -32.1447,27.666 -41.669,47.9619 -9.52435,20.5227 -14.3432,43.8233 -14.3432,70.0153l0 323.998c0,26.3053 4.81887,49.4926 14.3432,70.0153 9.52435,20.2959 23.3573,36.3399 41.669,48.132 18.3117,11.6787 40.6486,17.6881 67.0106,17.8582 26.3053,-0.170078 48.6422,-6.17949 67.0106,-17.8582 18.3117,-11.7921 32.1447,-27.836 41.669,-48.132 9.46766,-20.5227 14.2865,-43.71 14.2865,-70.0153l0 -323.998z"
     id="path1013" /></glyph>
   <glyph
   unicode="5"
   horiz-adv-x="522"
   id="glyph1019"><path
     d="M461.988 234.991c0.170078,22.5069 -0.963773,45.0139 -3.62832,67.861 -2.83463,22.6203 -8.33381,44.5037 -17.0078,65.4799 -8.50388,20.9762 -21.203,40.195 -38.3242,57.6563 -14.0031,14.1731 -31.5211,25.1715 -52.2138,32.9951 -20.6361,7.82357 -44.3336,11.8487 -70.809,12.0188 -28.0061,-0.170078 -52.8375,-4.30863 -74.494,-12.8125 -21.6566,-8.50388 -39.5147,-20.5227 -53.5178,-36.1699l0 225.977 295.028 0 0 64.0059 -359.998 0 0 -374.001 64.9697 0c4.64879,14.1731 12.359,26.3053 23.0172,36.8502 10.6582,10.4881 23.981,18.6519 39.9683,24.3211 16.044,5.83933 34.3557,8.84404 55.0485,8.84404 25.455,-0.170078 46.3178,-5.15902 62.135,-14.8534 15.9873,-9.63773 28.1762,-22.677 36.51,-39.0045 8.33381,-16.4975 14.0031,-34.8092 17.1778,-55.502 3.00471,-20.466 4.30863,-41.669 4.13856,-63.6657 0.170078,-17.1778 -0.340155,-34.4691 -1.81416,-51.9871 -1.5307,-17.518 -4.98894,-34.3557 -10.6582,-50.343 -5.49918,-15.9873 -14.3432,-30.1604 -26.5321,-42.6328 -10.6582,-10.5448 -23.4707,-18.7085 -38.6643,-24.3778 -15.1369,-5.66926 -31.6344,-8.67396 -49.3225,-8.67396 -37.3037,0.170078 -65.65,9.8645 -85.3223,28.8565 -19.5022,19.1621 -31.351,46.4879 -35.6596,82.1475l-71.9995 0c1.81416,-25.455 6.80311,-48.4721 14.7968,-69.1649 7.99365,-20.466 19.8424,-38.8344 35.2061,-54.8217 15.6471,-15.6471 35.6596,-28.0061 59.8106,-37.1336 24.3211,-9.01412 51.9871,-13.7196 83.168,-13.833 31.5211,0.113385 58.8469,4.81887 82.3176,14.1164 23.3573,9.18419 43.3698,22.1668 59.6973,38.8344 16.8377,17.0078 29.3101,35.7163 37.4738,55.8422 8.16373,20.1826 13.4928,41.499 15.9873,64.0059 2.72124,22.3369 3.68502,45.5241 3.51494,69.1649z"
     id="path1017" /></glyph>
   <glyph
   unicode="E"
   horiz-adv-x="599"
   id="glyph1023"><path
     d="M544.986 0l0 67.9744 -366.007 0 0 257.044 312.036 0 0 67.9744 -312.036 0 0 251.035 366.007 0 0 67.9744 -441.975 0 0 -712.002 441.975 0z"
     id="path1021" /></glyph>
   <glyph
   unicode="l"
   horiz-adv-x="294"
   id="glyph1027"><path
     d="M264.981 0l0 62.0217 -39.0045 0c-16.4975,0 -29.6502,2.66455 -39.2879,7.99365 -9.69443,5.3291 -16.4975,13.3228 -20.6928,23.981 -4.13856,10.6582 -6.17949,23.981 -6.00941,40.0249l0 577.981 -71.9995 0 0 -580.985c0,-25.1715 4.36533,-47.6784 13.3228,-67.3508 8.84404,-19.6723 22.5069,-34.9793 41.0454,-46.3178 18.4818,-11.3385 41.9525,-17.1778 70.6389,-17.3479l51.9871 0z"
     id="path1025" /></glyph>
   <glyph
   unicode="i"
   horiz-adv-x="251"
   id="glyph1031"><path
     d="M162.027 0l0 491.978 -71.9995 0 0 -491.978 71.9995 0zm4.98894 632.009l0 81.0137 -81.0137 0 0 -81.0137 81.0137 0z"
     id="path1029" /></glyph>
   <glyph
   unicode="a"
   horiz-adv-x="525"
   id="glyph1035"><path
     d="M441.011 0l0 333.976c0.170078,53.1776 -16.1574,93.8829 -48.6989,121.832 -32.4848,27.836 -81.9774,42.0092 -148.308,42.1793 -26.8156,0.170078 -50.6831,-1.98424 -71.4893,-6.46295 -20.8629,-4.5354 -39.6848,-12.1889 -56.3524,-23.0172 -16.4975,-10.8283 -31.9746,-25.6817 -46.1477,-44.5037l48.9824 -45.0139c9.80781,13.6629 20.3526,24.6613 31.6911,32.9951 11.3385,8.33381 24.4912,14.5133 39.2879,18.3684 14.8534,3.7984 32.5415,5.66926 53.0075,5.66926 30.1604,0 54.5382,-4.19525 73.1901,-12.1889 18.4818,-8.16373 31.9746,-20.3526 40.3084,-36.3399 8.50388,-15.9873 12.6991,-35.8297 12.5291,-59.4705l0 -46.9981 -147.004 0c-36.6801,-0.170078 -67.861,-6.00941 -93.2026,-17.518 -25.455,-11.5086 -44.7871,-27.836 -57.9965,-48.9824 -13.1527,-21.203 -19.7857,-46.3745 -19.7857,-75.5145 0,-19.6723 3.00471,-38.3242 9.1275,-55.6721 6.00941,-17.3479 15.3637,-32.1447 27.836,-44.3336 11.1684,-10.9984 23.1873,-19.6723 35.9998,-26.362 12.8692,-6.63303 27.666,-11.2818 44.3336,-14.2865 16.6676,-3.00471 36.1699,-4.36533 58.6768,-4.36533 21.8266,0 40.9887,1.70078 57.4863,5.15902 16.4975,3.34486 31.5211,9.01412 45.0139,16.8377 13.4928,7.6535 26.6455,18.0282 39.5147,31.0108l0 -46.9981 71.9995 0zm-71.9995 173.989c0,-20.466 -1.98424,-37.8139 -6.17949,-51.817 -4.02517,-14.1731 -10.318,-25.1715 -18.8219,-33.1651 -10.6582,-9.52435 -21.8266,-16.6676 -33.3352,-21.4865 -11.6787,-4.70548 -23.6975,-7.88027 -36.3399,-9.35427 -12.5291,-1.47401 -25.6817,-2.32439 -39.3446,-2.15432 -39.3446,0 -68.1445,6.80311 -86.6829,20.6361 -18.3117,13.833 -27.4959,34.8659 -27.3258,63.3256 0,58.0532 37.0202,87.0231 111.004,87.0231l137.026 0 0 -53.0075z"
     id="path1033" /></glyph>
   <glyph
   unicode="m"
   horiz-adv-x="879"
   id="glyph1039"><path
     d="M793.979 0l0 314.984c0,28.5164 -4.47871,54.1981 -13.3228,77.1586 -9.01412,22.8471 -22.1668,42.8596 -39.6848,59.8673 -15.1369,14.6834 -33.2785,25.8518 -54.8217,33.8455 -21.4865,7.99365 -45.4674,11.9621 -72.1696,12.1322 -34.4691,0 -65.4799,-6.97318 -92.6356,-20.6361 -27.1557,-13.833 -50.343,-34.3557 -69.335,-61.3413 -15.1936,26.9857 -35.4895,47.5084 -61.1713,61.3413 -25.6817,13.6629 -55.6721,20.6361 -89.8577,20.6361 -27.666,0 -53.291,-4.98894 -76.9885,-14.9668 -23.6408,-10.0346 -44.3336,-25.0014 -61.965,-45.0139l0 53.9713 -71.9995 0 0 -491.978 71.9995 0 0 303.022c0.113385,28.6297 5.3291,52.8375 15.4771,72.1696 10.148,19.5022 24.3211,34.1289 42.6895,43.9934 18.4818,9.80781 39.9683,14.7968 64.7996,14.7968 24.8313,0 46.1477,-4.81887 64.3461,-14.6267 17.9715,-9.69443 31.9746,-24.3778 41.8391,-43.71 9.80781,-19.5022 14.6267,-43.6533 14.7968,-72.6232l0 -303.022 71.9995 0 0 311.015c0.170078,25.9652 5.49918,48.3021 15.8739,66.5004 10.4881,18.3117 24.8313,32.3148 43.3131,42.0092 18.3117,9.46766 39.6848,14.4566 63.8358,14.4566 24.8313,0 46.1477,-4.81887 64.3461,-14.6267 17.9715,-9.69443 31.9746,-24.3778 41.8391,-43.71 9.80781,-19.5022 14.6267,-43.6533 14.7968,-72.6232l0 -303.022 71.9995 0z"
     id="path1037" /></glyph>
   <glyph
   unicode="«"
   horiz-adv-x="553"
   id="glyph1043"><path
     d="M250.02 57.9898l0 89.0095 -120.029 121.001 120.029 120.029 0 89.9814 -210.011 -210.011 210.011 -210.011zm225.966 0l0 89.0095 -121.001 121.001 121.001 120.029 0 89.9814 -210.011 -210.011 210.011 -210.011z"
     id="path1041" /></glyph>
   <glyph
   unicode="»"
   horiz-adv-x="553"
   id="glyph1047"><path
     d="M513.971 268l-210.011 210.011 0 -89.9814 120.029 -120.029 -120.029 -121.001 0 -89.0095 210.011 210.011zm-225.966 0l-210.011 210.011 0 -89.9814 121.001 -120.029 -121.001 -121.001 0 -89.0095 210.011 210.011z"
     id="path1045" /></glyph>
   <glyph
   unicode="В"
   horiz-adv-x="668"
   id="glyph1051"><path
     d="M591.984 195.022c0,26.9857 -4.47871,51.4768 -13.3228,73.4736 -9.01412,21.9967 -22.1668,41.499 -39.6848,58.5067 -5.49918,5.66926 -10.9984,10.4881 -16.4975,14.5133 -5.49918,4.13856 -11.9621,8.16373 -19.3322,11.9621 -7.14326,3.85509 -16.3275,7.99365 -27.1557,12.5291 8.84404,3.7984 16.3275,7.48342 22.5069,10.4881 6.00941,3.17478 11.3385,6.51964 16.1574,9.97789 4.70548,3.34486 9.52435,7.71019 14.3432,12.5291 17.0078,15.9873 29.9904,34.6392 38.8344,55.8422 8.67396,21.1463 13.1527,44.6737 13.1527,70.1287 -0.170078,37.7005 -8.95742,70.3555 -26.4754,98.3616 -17.3479,27.836 -41.669,49.6627 -73.02,65.1397 -31.351,15.3637 -68.1445,23.3573 -110.494,23.5274l-267.986 0 0 -712.002 277 0c44.1635,0.170078 81.9774,7.99365 113.669,23.6408 31.4644,15.7038 55.8422,38.0407 72.6799,67.0106 16.9511,29.0266 25.455,63.8358 25.625,104.371zm-86.9664 325.982c0,-26.0219 -5.66926,-48.3588 -16.6676,-66.8405 -11.1684,-18.4818 -27.0423,-32.4848 -47.8485,-42.3493 -20.8062,-9.80781 -45.9777,-14.6267 -75.5145,-14.7968l-186.008 0 0 247.009 186.008 0c29.5368,0 54.7083,-5.04564 75.5145,-14.6834 20.8062,-9.8645 36.6801,-23.8676 47.8485,-42.1793 10.9984,-18.3117 16.6676,-40.3084 16.6676,-66.1602zm10.9984 -322.014c-0.170078,-26.8156 -6.00941,-50.0028 -17.518,-69.5051 -11.5086,-19.5022 -28.0061,-34.6392 -49.3225,-45.2974 -21.3164,-10.7149 -46.658,-16.044 -76.1948,-16.2141l-194.002 0 0 261.013 194.002 0c29.5368,-0.170078 54.8784,-5.3291 76.1948,-15.8172 21.3164,-10.4881 37.8139,-25.5117 49.3225,-44.8438 11.5086,-19.5022 17.3479,-42.5194 17.518,-69.335z"
     id="path1049" /></glyph>
   <glyph
   unicode="Н"
   horiz-adv-x="696"
   id="glyph1055"><path
     d="M593.019 0l0 711.995 -76.0509 0 0 -319.025 -337.977 0 0 319.025 -75.9699 0 0 -711.995 75.9699 0 0 325.018 337.977 0 0 -325.018 76.0509 0z"
     id="path1053" /></glyph>
   <glyph
   unicode="Д"
   horiz-adv-x="693"
   id="glyph1059"><path
     d="M26.0219 67.9744l0 -239.98 75.0043 0 0 172.005 476.954 0 0 -172.005 75.0043 0 0 239.98 -84.9821 0 0 644.027 -389.024 0 0 -239.98c0.170078,-57.8831 -2.83463,-111.004 -8.78735,-159.363 -6.00941,-48.4721 -15.7038,-92.8057 -29.0266,-133.341 -13.1527,-40.3084 -30.6707,-77.4987 -52.1572,-111.344l-62.9854 0zm147.968 0c18.8219,33.5053 34.0155,69.335 45.354,107.716 11.3385,38.3242 19.3322,78.4625 24.3211,120.302 4.98894,41.8391 7.48342,84.8688 7.31334,129.032l0 219.003 241 0 0 -576.053 -317.989 0z"
     id="path1057" /></glyph>
   <glyph
   unicode="К"
   horiz-adv-x="610"
   id="glyph1063"><path
     d="M183.004 0l0 712.002 -76.0247 0 0 -712.002 76.0247 0zm428.993 0l-339.021 374.001 312.036 338.001 -96.0372 0 -304.949 -339.985 327.003 -372.017 100.969 0z"
     id="path1061" /></glyph>
   <glyph
   unicode="И"
   horiz-adv-x="716"
   id="glyph1067"><path
     d="M613.017 0l0 712.002 -71.9995 0 -362.039 -580.022 0 580.022 -75.968 0 0 -712.002 71.9995 0 361.982 580.985 0 -580.985 76.0247 0z"
     id="path1065" /></glyph>
   <glyph
   unicode="Л"
   horiz-adv-x="677"
   id="glyph1071"><path
     d="M574.012 0l0 712.002 -392.029 0 0 -289.019c0,-58.9603 -2.49447,-109.133 -7.14326,-150.462 -4.81887,-41.499 -11.6787,-75.6846 -20.6928,-102.33 -8.78735,-26.7022 -19.5022,-47.5084 -31.9746,-62.5319 -12.5291,-14.8534 -26.362,-25.3416 -41.669,-31.1809 -15.3637,-5.83933 -31.8612,-8.61727 -49.4926,-8.50388l-18.992 0 0 -67.9744 35.9998 0c33.9588,-0.340155 64.0059,6.51964 89.801,20.3526 26.0219,13.833 47.6784,36.1699 65.1964,67.124 17.4613,31.0108 30.6707,72.1696 39.6281,123.533 8.84404,51.1367 13.3794,114.349 13.3794,189.013l0 244.005 241.964 0 0 -644.027 76.0247 0z"
     id="path1069" /></glyph>
   <glyph
   unicode="О"
   horiz-adv-x="649"
   id="glyph1075"><path
     d="M574.012 355.973c0.170078,40.5352 -0.510233,75.5145 -1.87085,105.051 -1.30393,29.4801 -4.30863,55.1619 -8.95742,76.9885 -4.70548,21.8266 -11.8487,41.499 -21.6566,58.9603 -9.69443,17.518 -22.8471,34.5258 -39.5147,51.0233 -21.9967,22.1668 -47.6784,39.3446 -77.1586,51.4768 -29.5368,12.1889 -62.872,18.3684 -99.8356,18.5385 -37.0202,-0.170078 -70.5255,-6.34957 -100.176,-18.5385 -29.8203,-12.1322 -55.8422,-29.3101 -77.8389,-51.4768 -16.6676,-16.4975 -29.6502,-33.5053 -39.3446,-51.0233 -9.63773,-17.4613 -16.6676,-37.1336 -21.3164,-58.9603 -4.5354,-21.8266 -7.37003,-47.5084 -8.67396,-76.9885 -1.36062,-29.5368 -1.81416,-64.5161 -1.64408,-105.051 -0.170078,-40.4785 0.283463,-75.4578 1.64408,-104.995 1.30393,-29.4801 4.13856,-55.1619 8.67396,-76.9885 4.64879,-21.8266 11.6787,-41.499 21.3164,-59.017 9.69443,-17.4613 22.677,-34.4691 39.3446,-50.9666 21.9967,-22.1668 48.0186,-39.3446 77.8389,-51.5335 29.6502,-12.1322 63.1555,-18.3117 100.176,-18.4818 36.9635,0.170078 70.2988,6.34957 99.8356,18.4818 29.4801,12.1889 55.1619,29.3667 77.1586,51.5335 16.6676,16.4975 29.8203,33.5053 39.5147,50.9666 9.80781,17.518 16.9511,37.1903 21.6566,59.017 4.64879,21.8266 7.6535,47.5084 8.95742,76.9885 1.36062,29.5368 2.04093,64.5161 1.87085,104.995zm-76.0247 0c0.170078,-36.2832 -0.340155,-67.2941 -1.47401,-93.1459 -1.02047,-25.9652 -3.34486,-48.0186 -6.68972,-66.3303 -3.34486,-18.3117 -8.33381,-34.1856 -14.9668,-47.5084 -6.68972,-13.3228 -15.7038,-25.6817 -26.8723,-36.9635 -16.4975,-16.4975 -35.1494,-29.0266 -55.8422,-37.3604 -20.6361,-8.50388 -43.143,-12.6424 -67.124,-12.6424 -24.0376,0 -46.5446,4.13856 -67.1807,12.6424 -20.6928,8.33381 -39.3446,20.8629 -55.8422,37.3604 -11.1684,11.2818 -20.1826,23.6408 -26.8156,36.9635 -6.68972,13.3228 -11.6787,29.1967 -15.0235,47.5084 -3.34486,18.3117 -5.66926,40.3651 -6.63303,66.3303 -1.19054,25.8518 -1.70078,56.8626 -1.5307,93.1459 -0.170078,36.3399 0.340155,67.3508 1.5307,93.3726 0.963773,25.7951 3.28817,47.8485 6.63303,66.1602 3.34486,18.3117 8.33381,34.1856 15.0235,47.5084 6.63303,13.4928 15.6471,25.7951 26.8156,36.9635 16.4975,16.4975 35.1494,29.0266 55.8422,37.3604 20.6361,8.50388 43.143,12.6424 67.1807,12.6424 23.981,0 46.4879,-4.13856 67.124,-12.6424 20.6928,-8.33381 39.3446,-20.8629 55.8422,-37.3604 11.1684,-11.1684 20.1826,-23.4707 26.8723,-36.9635 6.63303,-13.3228 11.622,-29.1967 14.9668,-47.5084 3.34486,-18.3117 5.66926,-40.3651 6.68972,-66.1602 1.13385,-26.0219 1.64408,-57.0327 1.47401,-93.3726z"
     id="path1073" /></glyph>
   <glyph
   unicode="П"
   horiz-adv-x="696"
   id="glyph1079"><path
     d="M591.984 0l0 712.002 -488.973 0 0 -712.002 75.968 0 0 644.027 337.037 0 0 -644.027 75.968 0z"
     id="path1077" /></glyph>
   <glyph
   unicode="С"
   horiz-adv-x="636"
   id="glyph1083"><path
     d="M572.028 206.021l-76.0247 0c-6.51964,-29.5368 -17.518,-55.0485 -32.9951,-76.535 -15.5338,-21.4865 -35.036,-37.984 -58.3366,-49.6627 -23.3573,-11.8487 -49.8328,-17.6314 -79.653,-17.8015 -24.0376,0 -46.5446,4.13856 -67.1807,12.6424 -20.6928,8.33381 -39.3446,20.8629 -55.8422,37.3604 -11.1684,11.2818 -20.1826,23.6408 -26.8156,36.9635 -6.68972,13.3228 -11.6787,29.1967 -15.0235,47.5084 -3.34486,18.3117 -5.66926,40.3651 -6.63303,66.3303 -1.19054,25.8518 -1.70078,56.8626 -1.5307,93.1459 -0.170078,36.3399 0.340155,67.3508 1.5307,93.3726 0.963773,25.7951 3.28817,47.8485 6.63303,66.1602 3.34486,18.3117 8.33381,34.1856 15.0235,47.5084 6.63303,13.4928 15.6471,25.7951 26.8156,36.9635 16.4975,16.4975 35.1494,29.0266 55.8422,37.3604 20.6361,8.50388 43.143,12.6424 67.1807,12.6424 29.6502,-0.170078 56.1256,-5.95272 79.1428,-17.6314 23.0172,-11.8487 42.1793,-28.3463 57.3162,-49.8328 15.1936,-21.5432 26.0219,-46.9981 32.5415,-76.535l78.009 0c-8.50388,44.5037 -24.0376,82.5444 -46.5446,114.179 -22.5069,31.5211 -50.6265,55.6721 -84.642,72.5098 -34.0155,16.6676 -72.6799,25.1715 -115.823,25.3416 -37.0202,-0.170078 -70.5255,-6.34957 -100.346,-18.5385 -29.6502,-12.1322 -55.6721,-29.3101 -77.6688,-51.4768 -16.6676,-16.4975 -29.6502,-33.5053 -39.3446,-51.0233 -9.63773,-17.4613 -16.6676,-37.1336 -21.3164,-58.9603 -4.5354,-21.8266 -7.37003,-47.5084 -8.67396,-76.9885 -1.36062,-29.5368 -1.81416,-64.5161 -1.64408,-105.051 -0.170078,-40.4785 0.283463,-75.4578 1.64408,-104.995 1.30393,-29.4801 4.13856,-55.1619 8.67396,-76.9885 4.64879,-21.8266 11.6787,-41.499 21.3164,-59.017 9.69443,-17.4613 22.677,-34.4691 39.3446,-50.9666 21.9967,-22.1668 48.0186,-39.3446 77.6688,-51.5335 29.8203,-12.1322 63.3256,-18.3117 100.346,-18.4818 42.8029,0.170078 81.2971,8.67396 115.313,25.3416 34.0155,16.8377 62.3618,40.9887 84.9821,72.6799 22.5069,31.4644 38.2108,69.5051 46.7147,114.009z"
     id="path1081" /></glyph>
   <glyph
   unicode="Ь"
   horiz-adv-x="630"
   id="glyph1087"><path
     d="M589.999 209.025c-0.170078,42.2926 -9.35427,79.1428 -27.4959,110.494 -18.0282,31.2943 -43.4832,55.6721 -76.3649,72.9633 -32.825,17.518 -71.4893,26.192 -116.163,26.5321l-190.997 0 0 292.987 -75.968 0 0 -712.002 266.965 0c44.3336,0.340155 82.8845,9.01412 115.71,26.3053 32.9951,17.518 58.5067,41.669 76.6483,73.02 18.1416,31.1809 27.3258,67.6909 27.666,109.7zm-76.9885 0c0,-29.877 -6.00941,-55.2185 -17.8582,-76.1948 -11.6787,-20.9762 -28.6297,-37.0202 -50.9666,-48.0186 -22.3369,-11.1684 -49.3792,-16.6676 -81.1837,-16.8377l-184.024 0 0 283.009 184.024 0c31.8045,0 58.8469,-5.66926 81.1837,-16.8377 22.3369,-11.1684 39.2879,-27.1557 50.9666,-48.3021 11.8487,-21.203 17.8582,-46.658 17.8582,-76.8184z"
     id="path1085" /></glyph>
   <glyph
   unicode="Т"
   horiz-adv-x="547"
   id="glyph1091"><path
     d="M518 644.027l0 67.9744 -488.01 0 0 -67.9744 206.021 0 0 -644.027 75.968 0 0 644.027 206.021 0z"
     id="path1089" /></glyph>
   <glyph
   unicode="Ч"
   horiz-adv-x="644"
   id="glyph1095"><path
     d="M541.981 0l0 712.002 -75.968 0 0 -355.009c-11.5086,-2.32439 -24.8313,-4.81887 -40.195,-7.6535 -15.4771,-2.83463 -31.6344,-5.66926 -48.4721,-8.16373 -17.0078,-2.66455 -33.5053,-4.81887 -49.6627,-6.51964 -16.1574,-1.64408 -30.6707,-2.66455 -43.71,-2.66455 -16.6676,-0.170078 -32.825,1.5307 -48.4721,4.81887 -15.6471,3.51494 -29.6502,9.69443 -42.3493,18.5385 -12.4724,8.95742 -22.5069,21.4865 -29.8203,37.8139 -7.31334,16.3275 -11.1684,37.1903 -11.3385,62.8154l0 256.024 -75.968 0 0 -270.027c0.170078,-33.3352 5.49918,-61.4547 15.8172,-84.3018 10.4881,-22.8471 24.4912,-41.1588 42.3493,-54.8217 17.8015,-13.833 37.8139,-23.8676 60.3209,-29.877 22.5069,-6.1228 45.9777,-9.1275 70.4688,-8.95742 16.1574,0.170078 33.6754,0.963773 52.2138,3.00471 18.6519,1.81416 37.3037,4.30863 55.7855,7.14326 18.7085,2.83463 35.9998,5.83933 52.0438,8.84404 16.1574,3.00471 29.8203,5.66926 40.9887,7.99365l0 -291.003 75.968 0z"
     id="path1093" /></glyph>
   <glyph
   unicode="У"
   horiz-adv-x="546"
   id="glyph1099"><path
     d="M536.992 712.002l-81.0137 0 -172.969 -420.999 -192.018 420.999 -81.0137 0 235.047 -505.981 -29.0266 -67.0106c-6.8598,-16.3275 -14.5133,-29.6502 -22.8471,-40.195 -8.33381,-10.4881 -18.1416,-18.3117 -29.6502,-23.3006 -11.5086,-4.98894 -25.3416,-7.54011 -41.499,-7.54011l-45.0139 0 0 -67.9744 62.0217 0c23.4707,0.170078 44.1635,4.98894 61.6815,14.3432 17.4613,9.29758 32.6549,22.3369 45.2974,39.0045 12.8692,16.6676 23.8676,35.8297 32.9951,57.6563l258.008 600.998z"
     id="path1097" /></glyph>
   <glyph
   unicode="й"
   horiz-adv-x="576"
   id="glyph1103"><path
     d="M435.004 703.977l-63.9832 0c-2.18677,-24.9453 -10.2049,-43.6543 -24.2164,-56.127 -14.0115,-12.5537 -33.1255,-18.871 -57.8278,-18.871 -24.6214,0 -43.8163,6.31732 -57.8278,18.871 -14.0115,12.4727 -21.9487,31.1817 -24.1354,56.127l-63.9832 0c2.10577,-29.8048 9.47599,-54.1832 21.9487,-72.6492 12.7156,-18.466 29.4808,-32.1536 50.7006,-40.6576 20.9768,-8.50409 45.5171,-12.7966 73.2972,-12.6346 27.861,-0.161983 52.3204,4.13056 73.3781,12.6346 21.1387,8.50409 37.9849,22.1916 50.6196,40.6576 12.5537,18.466 19.8429,42.8444 22.0296,72.6492zm51.9964 -703.977l0 492.022 -72.0013 0 -253.017 -379.039 0 379.039 -70.9484 0 0 -492.022 70.9484 0 253.017 380.983 0 -380.983 72.0013 0z"
     id="path1101" /></glyph>
   <glyph
   unicode="в"
   horiz-adv-x="538"
   id="glyph1107"><path
     d="M472.017 135.984c-0.323965,30.0478 -8.01814,54.8311 -23.1635,74.512 -15.2264,19.6809 -36.0411,34.5023 -62.8493,44.4642 25.1883,9.07103 44.3023,22.6776 57.8278,40.9006 13.3636,18.1421 20.0049,40.6576 20.1668,67.1418 -0.161983,26.1602 -6.31732,48.8378 -18.1421,68.1947 -11.9867,19.114 -28.8329,34.0974 -50.5386,44.6262 -21.6247,10.6909 -47.137,16.0363 -76.2938,16.1983l-227.991 0 0 -492.022 233.984 0c30.7767,0.161983 57.1799,5.66939 78.9666,16.6842 21.8677,10.8528 38.7139,26.4842 50.3766,46.651 11.6628,20.3288 17.4941,44.4642 17.6561,72.6492zm-79.0475 221.025c0,-23.6495 -7.28922,-41.8725 -22.1106,-54.6692 -14.6594,-12.6346 -36.3651,-19.1949 -64.8741,-19.3569l-144.003 0 0 146.999 144.003 0c28.185,0 49.6477,-6.31732 64.5501,-18.79 14.8214,-12.5537 22.2726,-30.5337 22.4346,-54.1832zm8.01814 -213.979c0,-16.5222 -3.48263,-30.6957 -10.6909,-42.8444 -6.96525,-11.9867 -17.1702,-21.3817 -30.2908,-28.023 -13.3636,-6.64129 -29.3189,-9.96193 -48.0279,-10.1239l-149.996 0 0 161.983 149.996 0c18.709,0 34.6643,-3.48263 48.0279,-10.2049 13.1206,-6.47931 23.3255,-15.9553 30.2908,-28.023 7.20823,-12.1487 10.6909,-26.3222 10.6909,-42.7634z"
     id="path1105" /></glyph>
   <glyph
   unicode="з"
   horiz-adv-x="481"
   id="glyph1111"><path
     d="M415 138.981c-0.161983,18.871 -3.64461,35.8792 -10.6909,51.5105 -7.12724,15.4693 -17.0082,28.6709 -29.8048,39.8477 -13.0396,11.0148 -28.023,19.1949 -45.5171,24.6214 16.6842,6.23633 30.8577,14.7404 42.5205,25.6743 11.5008,11.0148 20.3288,23.7305 26.3222,38.0659 6.15534,14.4974 9.15202,29.8048 9.15202,46.327 -0.161983,21.4627 -4.61651,40.4957 -13.4446,56.9369 -9.07103,16.6842 -21.3817,30.5337 -37.175,41.8725 -15.8743,11.1768 -34.1783,19.6809 -55.1551,25.5123 -21.0577,5.83138 -43.7353,8.66607 -68.1947,8.66607 -33.8544,0.161983 -65.684,-3.64461 -95.1648,-11.8247 -29.6428,-8.18012 -57.9898,-21.8677 -84.8789,-41.2246l41.0626 -47.9469c20.0049,14.0115 40.8196,24.2974 62.6063,31.0197 21.8677,6.64129 45.0312,9.96193 69.3286,9.96193 22.5156,0 42.0345,-2.8347 58.5567,-8.34211 16.6842,-5.50741 29.4808,-13.8495 38.6329,-25.0263 9.15202,-11.0958 13.6875,-24.9453 13.8495,-41.6295 -0.161983,-17.0082 -3.96858,-31.3436 -11.8247,-43.1684 -7.85616,-11.6628 -18.547,-20.6528 -32.3155,-26.6461 -13.6875,-6.15534 -29.7238,-9.15202 -47.8659,-9.15202l-72.9732 0 0 -60.0146 72.0013 0c20.1668,0 37.823,-2.99668 52.8063,-8.99004 15.1454,-5.99336 26.8081,-15.2264 35.3122,-27.3751 8.50409,-12.1487 12.7156,-27.2941 12.8776,-45.6791 -0.161983,-13.4446 -3.88758,-25.5123 -11.0148,-35.9602 -7.37021,-10.6909 -16.8462,-19.5189 -28.8329,-26.8891 -11.9867,-7.12724 -25.3503,-12.6346 -39.8477,-16.4412 -14.6594,-3.88758 -29.3189,-5.66939 -44.3023,-5.66939 -20.1668,-0.161983 -38.3899,1.61983 -54.6692,5.18345 -16.3602,3.48263 -31.6676,9.314 -46.0031,17.3321 -14.3355,7.93715 -28.8329,18.79 -43.3304,32.4775l-45.0312 -46.975c19.1949,-17.5751 39.0378,-31.5056 59.3666,-41.7105 20.3288,-10.2859 41.7915,-17.6561 64.3071,-22.0296 22.6776,-4.29254 47.137,-6.47931 73.2972,-6.31732 25.0263,0 48.5138,3.32064 70.8674,10.0429 22.3536,6.64129 42.0345,16.1173 59.3666,28.6709 17.1702,12.4727 30.7767,27.4561 40.6576,45.2742 9.96193,17.7371 14.9834,37.661 15.1454,60.0146z"
     id="path1109" /></glyph>
   <glyph
   unicode="д"
   horiz-adv-x="556"
   id="glyph1115"><path
     d="M522.961 -146.999l0 209.039 -72.9732 0 0 429.983 -308.982 0 0 -94.0309c0,-35.6362 -0.971896,-67.4658 -3.15866,-95.8127 -2.18677,-28.185 -5.18345,-53.5353 -8.99004,-76.2128 -4.04957,-22.4346 -8.66607,-43.1684 -14.0115,-61.7964 -5.34543,-18.709 -11.3388,-36.3651 -17.8181,-52.9683 -6.72228,-16.5222 -13.5256,-33.0445 -21.0577,-49.1617l-57.9898 0 0 -209.039 69.0046 0 0 146.999 366 0 0 -146.999 69.9765 0zm-144.974 209.039l-224.022 0c8.01814,18.1421 15.3884,36.6081 22.1916,55.4791 6.64129,18.79 12.4727,39.1188 17.4941,60.6625 5.02146,21.4627 8.82806,45.3551 11.6628,71.3534 2.8347,25.9982 4.37353,55.1551 4.6975,87.4706l0 92.9781 167.976 0 0 -367.944z"
     id="path1113" /></glyph>
   <glyph
   unicode="е"
   horiz-adv-x="530"
   id="glyph1119"><path
     d="M466.996 227.019l0 31.9916c-0.161983,49.4857 -8.18012,92.1681 -23.9734,127.804 -15.7123,35.5552 -38.7139,63.0113 -68.6807,82.2062 -30.2098,19.114 -66.4939,28.8329 -109.338,28.9949 -41.8725,-0.161983 -77.8327,-10.0429 -108.042,-29.8858 -29.9668,-19.5999 -53.1303,-48.1089 -69.3286,-85.6078 -16.2793,-37.499 -24.4594,-83.0161 -24.6214,-136.551 0.161983,-57.8278 9.15202,-105.451 26.6461,-142.626 17.4941,-37.175 42.3585,-64.8741 74.35,-82.6922 32.1536,-17.8181 70.1385,-26.8081 113.955,-26.6461 27.5371,0 51.6725,2.8347 72.5682,8.66607 20.8148,5.66939 39.7667,14.1735 56.9369,25.3503 17.3321,11.3388 34.1783,25.3503 50.5386,41.9535l-48.9998 43.0064c-12.8776,-12.9586 -25.5123,-23.6495 -38.1469,-31.8296 -12.5537,-8.34211 -26.1602,-14.3355 -40.6576,-18.304 -14.7404,-4.04957 -31.3436,-5.83138 -50.2146,-5.83138 -31.6676,0.161983 -58.3138,6.80327 -79.8575,20.0049 -21.4627,13.2826 -37.661,32.6395 -48.5948,57.9898 -11.0148,25.1883 -16.5222,55.803 -16.5222,92.0062l331.983 0zm-71.0294 54.0212l-260.954 0c0.647931,13.1206 1.29586,24.1354 2.18677,33.2874 0.809913,8.99004 2.10577,17.3321 3.96858,24.7024 2.02478,7.4512 4.85948,15.4693 8.82806,23.9734 10.6909,22.8396 25.8362,40.6576 45.5171,53.8592 19.6809,13.1206 42.8444,20.0049 69.4906,20.1668 26.6461,-0.161983 49.8097,-7.04625 69.4906,-20.1668 19.6809,-13.2016 34.8263,-31.0197 45.5171,-53.8592 3.96858,-8.50409 6.80327,-16.5222 8.82806,-23.9734 2.02478,-7.37021 3.32064,-15.7123 4.29254,-24.7024 1.05289,-9.15202 2.02478,-20.1668 2.8347,-33.2874z"
     id="path1117" /></glyph>
   <glyph
   unicode="б"
   horiz-adv-x="533"
   id="glyph1123"><path
     d="M273.022 57.9898c-17.1702,0 -33.5304,3.15866 -48.9998,9.314 -15.5503,6.23633 -28.8329,15.2264 -40.0097,26.7271 -9.314,9.47599 -17.1702,20.8148 -23.3255,33.9354 -6.15534,13.2016 -10.8528,29.2379 -14.0115,48.0279 -3.15866,18.871 -4.6975,41.4676 -4.6975,68.0327 0,25.9982 1.70082,48.4328 4.85948,67.7897 3.15866,19.3569 7.85616,35.8792 14.0115,49.6477 5.99336,13.8495 13.4446,25.3503 22.1916,34.5023 11.6628,12.2297 25.1073,21.5437 40.4957,28.023 15.3074,6.64129 31.8296,10.0429 49.4857,10.0429 17.1702,-0.161983 33.4494,-3.56362 48.9998,-10.3669 15.4693,-6.80327 28.8329,-16.0363 40.0097,-27.699 9.314,-9.47599 16.6032,-21.3007 22.2726,-35.1502 5.50741,-14.0115 9.71896,-30.6147 12.0677,-50.1336 2.42974,-19.5189 3.64461,-42.5205 3.64461,-68.6807 0,-25.5123 -1.37685,-47.5419 -4.21155,-66.1699 -2.67271,-18.466 -6.96525,-34.5023 -12.6346,-47.7039 -5.83138,-13.2826 -13.2016,-24.6214 -22.1916,-34.0974 -11.1768,-11.5008 -24.4594,-20.4908 -39.8477,-26.7271 -15.3074,-6.15534 -31.4246,-9.314 -48.1089,-9.314zm0 -63.9832c27.78,0.161983 53.4543,4.85948 77.3467,14.3355 23.6495,9.314 43.9783,22.5156 60.6625,39.6858 14.3355,14.1735 25.8362,30.4527 34.6643,48.9998 8.82806,18.304 15.3074,39.7667 19.2759,64.3071 4.04957,24.7024 5.99336,53.1303 5.99336,85.6888 0,30.1288 -2.10577,57.9898 -6.80327,83.826 -4.45452,25.6743 -11.5008,48.8378 -20.9768,69.0046 -9.55698,20.3288 -21.5437,37.499 -36.2031,51.1055 -15.4693,14.5784 -33.6114,25.5123 -54.3452,32.8825 -20.6528,7.4512 -43.6543,11.1768 -68.5997,11.1768 -21.5437,0 -42.0345,-3.15866 -61.5534,-9.15202 -19.5189,-5.99336 -36.6891,-14.4974 -51.6725,-25.3503 -14.9834,-10.8528 -26.6461,-23.6495 -34.8263,-38.5519 -0.161983,27.699 1.21487,52.7254 4.04957,74.998 2.8347,22.3536 8.26112,42.1965 16.2793,59.6906 8.01814,17.6561 19.5189,33.0445 34.6643,46.327 11.5008,9.71896 25.1883,17.4941 40.8196,23.1635 15.7123,5.66939 32.5585,10.0429 50.3766,13.0396 17.8181,2.8347 35.9602,5.02146 54.1832,6.31732 18.304,1.13388 35.7982,2.18677 52.4824,2.99668 16.8462,0.809913 31.8296,2.02478 45.1932,3.48263l0 65.036c-25.0263,-1.53884 -50.8626,-2.8347 -77.5087,-4.04957 -26.8891,-1.13388 -53.3733,-3.64461 -79.6955,-7.12724 -26.1602,-3.64461 -51.0245,-10.0429 -74.512,-18.871 -23.3255,-8.99004 -44.1403,-21.9487 -62.2823,-38.9568 -12.3917,-11.3388 -22.6776,-23.1635 -31.0197,-35.3122 -8.34211,-12.2297 -14.9834,-25.9982 -20.0049,-41.2246 -5.18345,-15.3074 -8.99004,-33.2874 -11.5008,-53.9402 -2.67271,-20.7338 -4.37353,-45.3551 -5.34543,-73.8641 -0.809913,-28.5089 -1.13388,-62.0394 -1.13388,-100.672 0,-17.8181 0.161983,-36.6891 0.485948,-56.37 0.323965,-19.7619 0.971896,-39.4428 2.18677,-58.9617 1.13388,-19.6809 2.8347,-38.1469 5.26444,-55.803 2.51073,-17.4941 5.83138,-33.2064 10.0429,-46.894 8.82806,-27.4561 21.7867,-50.7816 38.9568,-70.3005 17.3321,-19.5189 38.2279,-34.5023 62.6873,-45.0312 24.5404,-10.2859 51.8345,-15.4693 82.3682,-15.6313z"
     id="path1121" /></glyph>
   <glyph
   unicode="л"
   horiz-adv-x="545"
   id="glyph1127"><path
     d="M455.981 0l0 492.022 -314.975 0 0 -210.982c-0.161983,-40.9006 -2.34875,-74.674 -6.47931,-101.563 -4.37353,-26.8081 -10.2049,-48.2708 -17.4941,-64.1451 -7.20823,-15.7933 -15.3884,-27.699 -24.3784,-35.3122 -8.99004,-7.69418 -18.304,-12.7156 -28.023,-14.8214 -9.47599,-2.34875 -18.79,-3.40164 -27.618,-3.15866l-16.0363 0 0 -62.0394 33.0445 0c22.6776,-0.161983 43.3304,3.64461 62.2823,11.6628 19.033,8.01814 35.5552,21.7057 49.5667,41.1436 13.7685,19.3569 24.6214,45.8411 32.4775,79.6955 7.61319,33.6924 11.5008,76.2938 11.6628,127.48l0 170.001 173.969 0 0 -429.983 72.0013 0z"
     id="path1125" /></glyph>
   <glyph
   unicode="г"
   horiz-adv-x="417"
   id="glyph1131"><path
     d="M406.01 429.983l0 62.0394 -311.979 0 0 -492.022 72.0013 0 0 429.983 239.977 0z"
     id="path1129" /></glyph>
   <glyph
   unicode="п"
   horiz-adv-x="556"
   id="glyph1135"><path
     d="M470.965 0l0 492.022 -380.983 0 0 -492.022 71.0294 0 0 429.983 237.953 0 0 -429.983 72.0013 0z"
     id="path1133" /></glyph>
   <glyph
   unicode="о"
   horiz-adv-x="530"
   id="glyph1139"><path
     d="M466.024 245.971c0.161983,25.5123 -1.37685,50.0526 -4.53551,73.5401 -3.15866,23.4875 -8.99004,45.6791 -17.6561,66.3319 -8.66607,20.6528 -21.3007,39.5238 -37.823,56.127 -17.0082,17.7371 -37.175,31.3436 -60.6625,41.2246 -23.4875,9.63797 -50.3766,14.6594 -80.3434,14.8214 -29.9668,-0.161983 -56.6939,-5.18345 -80.3434,-14.8214 -23.4875,-9.88094 -43.6543,-23.4875 -60.6625,-41.2246 -16.5222,-16.6032 -28.9949,-35.4742 -37.823,-56.127 -8.66607,-20.6528 -14.4974,-42.8444 -17.6561,-66.3319 -3.15866,-23.4875 -4.6975,-48.0279 -4.53551,-73.5401 -0.161983,-25.2693 1.37685,-49.8097 4.53551,-73.2972 3.15866,-23.3255 8.99004,-45.3551 17.6561,-66.0079 8.82806,-20.6528 21.3007,-39.6858 37.823,-56.6939 17.0082,-17.6561 37.175,-31.3436 60.6625,-41.1436 23.6495,-9.63797 50.3766,-14.6594 80.3434,-14.8214 29.9668,0.161983 56.8559,5.18345 80.3434,14.8214 23.4875,9.79995 43.6543,23.4875 60.6625,41.1436 16.5222,17.0082 29.1569,36.0411 37.823,56.6939 8.66607,20.6528 14.4974,42.6824 17.6561,66.0079 3.15866,23.4875 4.6975,48.0279 4.53551,73.2972zm-72.0013 0c0.161983,-18.466 -0.485948,-36.932 -2.18677,-55.641 -1.53884,-18.466 -5.18345,-36.2031 -10.6909,-52.6444 -5.66939,-16.6842 -14.3355,-31.1817 -26.1602,-43.6543 -11.9867,-12.0677 -25.6743,-21.0577 -40.8196,-27.0511 -15.1454,-5.99336 -31.6676,-8.99004 -49.1617,-8.99004 -17.4941,0 -33.6924,2.99668 -48.6758,8.99004 -14.8214,5.99336 -28.347,14.9834 -40.3337,27.0511 -12.1487,12.4727 -21.1387,26.9701 -26.8081,43.6543 -5.66939,16.4412 -9.314,34.1783 -11.0148,52.6444 -1.70082,18.709 -2.34875,37.175 -2.18677,55.641 -0.161983,18.871 0.647931,37.661 2.34875,56.37 1.8628,18.628 5.50741,36.3651 11.3388,52.6444 5.66939,16.5222 14.4974,30.8577 26.3222,43.0064 11.9867,11.9867 25.5123,20.9768 40.3337,26.9701 14.9834,6.07435 31.1817,9.07103 48.6758,9.07103 17.4941,0 34.0164,-2.99668 49.1617,-9.07103 15.1454,-5.99336 28.8329,-14.9834 40.8196,-26.9701 11.8247,-12.1487 20.4908,-26.4842 26.1602,-43.0064 5.50741,-16.2793 9.15202,-34.0164 10.6909,-52.6444 1.70082,-18.709 2.34875,-37.499 2.18677,-56.37z"
     id="path1137" /></glyph>
   <glyph
   unicode="к"
   horiz-adv-x="498"
   id="glyph1143"><path
     d="M166.032 0l0 492.022 -72.0013 0 0 -492.022 72.0013 0zm326.962 0l-241.03 259.982 221.025 232.04 -89.0095 0 -216.976 -237.062 233.012 -254.961 92.9781 0z"
     id="path1141" /></glyph>
   <glyph
   unicode="н"
   horiz-adv-x="561"
   id="glyph1147"><path
     d="M470.965 0l0 492.022 -72.0013 0 0 -207.014 -237.953 0 0 207.014 -71.0294 0 0 -492.022 71.0294 0 0 222.969 237.953 0 0 -222.969 72.0013 0z"
     id="path1145" /></glyph>
   <glyph
   unicode="м"
   horiz-adv-x="656"
   id="glyph1151"><path
     d="M564.996 0l0 492.022 -71.0294 0 -164.979 -331.012 -167.004 331.012 -70.9484 0 0 -492.022 70.9484 0 0 349.964 138.981 -271.969 55.0741 0 136.956 271.969 0 -349.964 72.0013 0z"
     id="path1149" /></glyph>
   <glyph
   unicode="и"
   horiz-adv-x="576"
   id="glyph1155"><path
     d="M487.001 0l0 492.022 -72.0013 0 -253.017 -379.039 0 379.039 -70.9484 0 0 -492.022 70.9484 0 253.017 380.983 0 -380.983 72.0013 0z"
     id="path1153" /></glyph>
   <glyph
   unicode="ж"
   horiz-adv-x="717"
   id="glyph1159"><path
     d="M711.023 0l-230.987 259.982 210.982 232.04 -86.9847 0 -209.039 -237.062 224.994 -254.961 91.0343 0zm-317 0l0 492.022 -71.0294 0 0 -492.022 71.0294 0zm-296.995 0l224.994 254.961 -207.986 237.062 -88.0376 0 210.982 -232.04 -230.987 -259.982 91.0343 0z"
     id="path1157" /></glyph>
   <glyph
   unicode="а"
   horiz-adv-x="526"
   id="glyph1163"><path
     d="M440.998 0l0 334.008c0.161983,53.1303 -16.1983,93.788 -48.6758,121.811 -32.4775,27.861 -81.9632,42.0345 -148.295,42.1965 -26.8891,0.161983 -50.7006,-2.02478 -71.5153,-6.47931 -20.8148,-4.53551 -39.6858,-12.2297 -56.37,-23.0015 -16.4412,-10.8528 -31.9916,-25.6743 -46.1651,-44.5452l48.9998 -44.9502c9.88094,13.6065 20.3288,24.6214 31.6676,32.9635 11.3388,8.34211 24.5404,14.4974 39.3618,18.304 14.8214,3.88758 32.4775,5.66939 52.9683,5.66939 30.2098,0 54.5072,-4.13056 73.2162,-12.1487 18.466,-8.18012 31.9916,-20.3288 40.3337,-36.3651 8.50409,-15.9553 12.6346,-35.7982 12.4727,-59.4476l0 -46.975 -146.999 0c-36.6891,-0.242974 -67.8707,-6.07435 -93.14,-17.5751 -25.5123,-11.5008 -44.8692,-27.78 -57.9898,-48.9998 -13.2016,-21.1387 -19.8429,-46.327 -19.8429,-75.4839 0,-19.6809 2.99668,-38.3089 9.15202,-55.641 5.99336,-17.3321 15.3074,-32.1536 27.861,-44.3023 11.0958,-11.0148 23.1635,-19.6809 35.9602,-26.4032 12.7966,-6.64129 27.699,-11.3388 44.3023,-14.3355 16.6842,-2.99668 36.2031,-4.29254 58.7187,-4.29254 21.7867,0 40.9816,1.61983 57.5038,5.18345 16.4412,3.32064 31.5056,8.99004 44.9502,16.8462 13.5256,7.61319 26.7271,17.9801 39.5238,30.9387l0 -46.975 72.0013 0zm-72.0013 173.969c0,-20.4908 -2.02478,-37.823 -6.15534,-51.8345 -3.96858,-14.1735 -10.3669,-25.1073 -18.871,-33.1255 -10.6099,-9.47599 -21.7867,-16.6842 -33.2874,-21.5437 -11.6628,-4.61651 -23.6495,-7.77517 -36.3651,-9.314 -12.4727,-1.45784 -25.6743,-2.34875 -39.2808,-2.18677 -39.3618,0 -68.1947,6.88426 -86.7417,20.7338 -18.304,13.7685 -27.4561,34.8263 -27.2941,63.3352 0,57.9898 37.013,86.9847 111.039,86.9847l136.956 0 0 -53.0493z"
     id="path1161" /></glyph>
  </font>
</defs>
</svg>
